<?xml version="1.0" standalone="no"?>
<!DOCTYPE svg PUBLIC "-//W3C//DTD SVG 1.1//EN" "http://www.w3.org/Graphics/SVG/1.1/DTD/svg11.dtd" >
<svg xmlns="http://www.w3.org/2000/svg" xmlns:xlink="http://www.w3.org/1999/xlink" version="1.1">
<metadata>
Created by FontForge 20150715 at Thu Dec 24 06:04:34 2015
 By Jimmy Wärting
Digitized data copyright (c) 1997 The Monotype Corporation, Inc. All rights reserved. Gill Sans is a trademark of The Monotype Corporation, Inc. which may be registered in certain jurisdictions.
</metadata>
<defs>
<font id="GillSansMT-Condensed" horiz-adv-x="725" >
  <font-face 
    font-family="Gill Sans MT Condensed"
    font-weight="400"
    font-stretch="condensed"
    units-per-em="2048"
    panose-1="2 11 5 6 2 1 4 2 2 3"
    ascent="1638"
    descent="-410"
    x-height="907"
    cap-height="1368"
    bbox="-238 -553 2060 1878"
    underline-thickness="102"
    underline-position="-205"
    unicode-range="U+0020-F002"
  />
<missing-glyph horiz-adv-x="2048" 
d="M256 0v1536h1536v-1536h-1536zM384 128h1280v1280h-1280v-1280z" />
    <glyph glyph-name=".notdef" horiz-adv-x="2048" 
d="M256 0v1536h1536v-1536h-1536zM384 128h1280v1280h-1280v-1280z" />
    <glyph glyph-name=".null" horiz-adv-x="0" 
 />
    <glyph glyph-name="nonmarkingreturn" horiz-adv-x="682" 
 />
    <glyph glyph-name="space" unicode=" " horiz-adv-x="682" 
 />
    <glyph glyph-name="exclam" unicode="!" horiz-adv-x="362" 
d="M78 1133q0 247 104 247q105 0 105 -247q0 -200 -37.5 -471t-67.5 -271q-29 0 -66.5 271t-37.5 471zM182 -18q-46 0 -79 33t-33 79t33 78.5t79 32.5t78.5 -32.5t32.5 -78.5t-32.5 -79t-78.5 -33z" />
    <glyph glyph-name="quotedbl" unicode="&#x22;" horiz-adv-x="727" 
d="M428 1466h205v-245l-47 -275h-111l-47 275v245zM96 1466h205v-245l-47 -275h-111l-47 275v245z" />
    <glyph glyph-name="numbersign" unicode="#" horiz-adv-x="1368" 
d="M141 1059h301l88 432h150l-88 -432h315l88 432h150l-88 -432h170v-150h-201l-70 -352h271v-149h-301l-88 -433h-150l88 433h-315l-88 -433h-150l88 433h-170v149h201l70 352h-271v150zM561 909l-69 -352h315l70 352h-316z" />
    <glyph glyph-name="dollar" unicode="$" horiz-adv-x="768" 
d="M53 59v177q145 -89 273 -89v482q-140 108 -205.5 201t-65.5 200q0 109 72.5 195.5t198.5 105.5v66h118v-56q109 0 238 -65v-170q-130 76 -238 78v-412q269 -200 269 -436q0 -122 -71.5 -215t-197.5 -127v-205h-118v193q-163 15 -273 77zM326 868v301q-107 -42 -107 -133
q0 -85 107 -168zM444 532v-362q109 53 109 160q0 115 -109 202z" />
    <glyph glyph-name="percent" unicode="%" horiz-adv-x="1237" 
d="M201 -61l700 1447h127l-698 -1447h-129zM223 657q-188 0 -188 363q0 362 188 362q189 0 189 -360q0 -365 -189 -365zM223 768q56 0 56 244q0 156 -12 209t-44 53t-43.5 -62t-11.5 -202q0 -242 55 -242zM1014 -14q-189 0 -189 362q0 363 189 363q188 0 188 -361
q0 -364 -188 -364zM1014 96q55 0 55 244q0 156 -12 209t-43 53q-33 0 -44.5 -62t-11.5 -202q0 -242 56 -242z" />
    <glyph glyph-name="ampersand" unicode="&#x26;" horiz-adv-x="854" 
d="M633 -18l-51 120q-105 -120 -222 -120q-126 0 -215.5 116.5t-89.5 284.5q0 243 205 424q-76 168 -76 283q0 120 74.5 206t177.5 86q98 0 166 -73.5t68 -180.5q0 -174 -201 -350l133 -313h4q32 130 43 223h156q-19 -215 -113 -420l131 -286h-190zM399 924q61 60 90 103
t29 103q0 50 -24 82.5t-60 32.5q-38 0 -64 -36t-26 -89q0 -88 55 -196zM510 264l-174 385q-56 -68 -80.5 -120t-24.5 -132q0 -104 41.5 -171.5t102.5 -67.5q72 0 135 106z" />
    <glyph glyph-name="quotesingle" unicode="'" horiz-adv-x="391" 
d="M94 1466h205v-245l-47 -275h-111l-47 275v245z" />
    <glyph glyph-name="parenleft" unicode="(" horiz-adv-x="469" 
d="M453 1380q-106 -173 -152.5 -382.5t-46.5 -559.5t46.5 -559t152.5 -383h-93q-148 235 -212 444t-64 498q0 290 64 498.5t212 443.5h93z" />
    <glyph glyph-name="parenright" unicode=")" horiz-adv-x="469" 
d="M16 -504q106 174 152.5 383t46.5 559t-46.5 559.5t-152.5 382.5h93q148 -235 212 -443.5t64 -498.5q0 -289 -64 -498t-212 -444h-93z" />
    <glyph glyph-name="asterisk" unicode="*" 
d="M399 1038q104 -62 140 -96.5t36 -69.5q0 -25 -22 -46t-49 -21q-84 0 -121 219q-14 -5 -19 -5q-6 0 -20 5q-41 -219 -121 -219q-29 0 -50 20t-21 47q0 62 174 166q-15 17 -13 33q-36 -6 -96 -6q-154 0 -154 80q0 26 19.5 45.5t46.5 19.5q64 0 193 -114q8 18 28 22
q-55 128 -55 185q0 35 19 57t48 22q30 0 49 -22t19 -55q0 -59 -55 -187q21 -4 31 -22q125 114 190 114q28 0 48 -19t20 -46q0 -80 -156 -80q-60 0 -96 6q0 -20 -13 -33z" />
    <glyph glyph-name="plus" unicode="+" horiz-adv-x="1366" 
d="M199 807h399v399h170v-399h399v-170h-399v-399h-170v399h-399v170z" />
    <glyph glyph-name="comma" unicode="," horiz-adv-x="362" 
d="M76 -266l-2 18q68 101 57 232q-86 21 -86 108q0 50 32 83.5t79 33.5q58 0 94.5 -50.5t36.5 -131.5q0 -203 -211 -293z" />
    <glyph glyph-name="hyphen" unicode="-" horiz-adv-x="492" 
d="M59 373v172h371v-172h-371z" />
    <glyph glyph-name="period" unicode="." horiz-adv-x="362" 
d="M70 94q0 46 33 78.5t79 32.5t78.5 -32.5t32.5 -78.5t-32.5 -79t-78.5 -33t-79 33t-33 79z" />
    <glyph glyph-name="slash" unicode="/" horiz-adv-x="575" 
d="M20 -18l390 1386h145l-389 -1386h-146z" />
    <glyph glyph-name="zero" unicode="0" horiz-adv-x="748" 
d="M371 -25q-153 0 -224 173t-71 530q0 704 295 704q152 0 225.5 -168.5t73.5 -535.5q0 -352 -70 -527.5t-229 -175.5zM489 678q0 317 -27.5 431t-88.5 114q-59 0 -88 -100t-29 -445q0 -541 117 -541q116 0 116 541z" />
    <glyph glyph-name="one" unicode="1" horiz-adv-x="748" 
d="M285 0v1368h176v-1368h-176z" />
    <glyph glyph-name="two" unicode="2" horiz-adv-x="748" 
d="M70 0v27q360 596 360 940q0 104 -48.5 166.5t-129.5 62.5q-57 0 -154 -45v182q106 49 199 49q145 0 229 -102.5t84 -280.5q0 -154 -66 -335t-225 -490h320v-174h-569z" />
    <glyph glyph-name="three" unicode="3" horiz-adv-x="748" 
d="M94 16v174q85 -43 152 -43q81 0 130.5 67.5t49.5 180.5q0 216 -178 244v174q162 25 162 201q0 92 -44.5 146t-119.5 54q-56 0 -121 -38v172q72 34 158 34q131 0 219 -97t88 -243q0 -207 -207 -311q223 -82 223 -352q0 -168 -98 -286t-238 -118q-72 0 -176 41z" />
    <glyph glyph-name="four" unicode="4" horiz-adv-x="748" 
d="M414 0v375h-359v157l371 850h164v-884h76v-123h-76v-375h-176zM414 498v549h-4l-234 -549h238z" />
    <glyph glyph-name="five" unicode="5" horiz-adv-x="748" 
d="M106 12v166q82 -31 138 -31q96 0 152.5 70t56.5 191q0 117 -60 183t-166 66q-47 0 -71 -8v719h434v-160h-262v-405q305 -43 305 -389q0 -188 -102.5 -313.5t-254.5 -125.5q-85 0 -170 37z" />
    <glyph glyph-name="six" unicode="6" horiz-adv-x="748" 
d="M602 1368l-262 -539q42 11 74 11q114 0 185 -115t71 -303q0 -192 -83.5 -319.5t-205.5 -127.5q-119 0 -200 115.5t-81 333.5q0 276 125 532l201 412h176zM383 668q-102 0 -102 -260q0 -261 104 -261t104 289q0 232 -106 232z" />
    <glyph glyph-name="seven" unicode="7" horiz-adv-x="748" 
d="M201 12l243 1196h-350v160h559l-286 -1393z" />
    <glyph glyph-name="eight" unicode="8" horiz-adv-x="748" 
d="M510 711q158 -100 158 -326q0 -186 -81 -298t-214 -112q-132 0 -212.5 110.5t-80.5 293.5q0 235 158 332q-142 106 -142 301q0 174 86 272t191 98q109 0 193.5 -100.5t84.5 -269.5q0 -195 -141 -301zM276 987q0 -94 26 -148.5t69 -54.5t68.5 54t25.5 147q0 225 -94 225
q-95 0 -95 -223zM260 385q0 -107 31.5 -172.5t81.5 -65.5q51 0 82.5 65t31.5 173q0 227 -114 227q-113 0 -113 -227z" />
    <glyph glyph-name="nine" unicode="9" horiz-adv-x="748" 
d="M178 0l254 528q-45 -10 -74 -10q-115 0 -186.5 115.5t-71.5 304.5q0 191 84 317.5t205 126.5q125 0 203 -121t78 -329q0 -270 -123 -526l-195 -406h-174zM387 690q102 0 102 260t-102 260q-106 0 -106 -286q0 -234 106 -234z" />
    <glyph glyph-name="colon" unicode=":" horiz-adv-x="362" 
d="M70 821q0 46 33 78.5t79 32.5t78.5 -32.5t32.5 -78.5t-32.5 -79t-78.5 -33t-79 33t-33 79zM70 94q0 46 33 78.5t79 32.5t78.5 -32.5t32.5 -78.5t-32.5 -79t-78.5 -33t-79 33t-33 79z" />
    <glyph glyph-name="semicolon" unicode=";" horiz-adv-x="362" 
d="M70 821q0 46 33 78.5t79 32.5t78.5 -32.5t32.5 -78.5t-32.5 -79t-78.5 -33t-79 33t-33 79zM76 -266l-2 18q68 101 57 232q-86 21 -86 108q0 50 32 83.5t79 33.5q58 0 94.5 -50.5t36.5 -131.5q0 -203 -211 -293z" />
    <glyph glyph-name="less" unicode="&#x3c;" horiz-adv-x="1366" 
d="M199 641v168l970 410v-181l-770 -313l770 -313v-181z" />
    <glyph glyph-name="equal" unicode="=" horiz-adv-x="1366" 
d="M199 1030h968v-170h-968v170zM199 588h968v-170h-968v170z" />
    <glyph glyph-name="greater" unicode="&#x3e;" horiz-adv-x="1366" 
d="M1169 641l-970 -410v181l770 313l-770 313v181l970 -410v-168z" />
    <glyph glyph-name="question" unicode="?" horiz-adv-x="512" 
d="M66 1184l127 196q134 -10 210 -90t76 -203q0 -56 -22.5 -125.5t-115 -222.5t-117.5 -236t-23 -153q-107 51 -107 180q0 58 20 126t98.5 206.5t78.5 208.5q0 52 -37 89.5t-88 37.5q-37 0 -86 -27zM231 -18q-45 0 -78.5 33t-33.5 79t33 78.5t79 32.5t78.5 -32.5t32.5 -78.5
t-32.5 -79t-78.5 -33z" />
    <glyph glyph-name="at" unicode="@" horiz-adv-x="2079" 
d="M1417 1012l-125 -791q-3 -22 -3 -36q0 -42 38 -42q87 0 194 132t107 362q0 261 -151 415t-406 154q-293 0 -478 -202.5t-185 -526.5q0 -314 179 -506t470 -192q284 0 518 186h225q-126 -162 -329.5 -258t-409.5 -96q-351 0 -588 248.5t-237 617.5q0 366 220.5 632.5
t614.5 266.5q337 0 533 -210.5t196 -528.5q0 -296 -180.5 -479t-357.5 -183q-122 0 -156 119q-119 -119 -240 -119q-143 0 -234 119.5t-91 311.5q0 247 124.5 444t303.5 197q136 0 235 -148l19 113h194zM1004 874q-106 0 -174 -152.5t-68 -371.5q0 -103 36 -160t101 -57
q109 0 172.5 162t63.5 393q0 186 -131 186z" />
    <glyph glyph-name="A" unicode="A" 
d="M14 0l258 1376h183l256 -1376h-170l-49 303h-254l-54 -303h-170zM264 467h197l-96 573h-5z" />
    <glyph glyph-name="B" unicode="B" horiz-adv-x="788" 
d="M121 0v1368h209q155 0 257.5 -100t102.5 -238q0 -185 -178 -295q209 -98 209 -340q0 -175 -113 -285t-321 -110h-166zM297 788h16q92 0 146.5 58t54.5 155t-52.5 150t-148.5 53h-16v-416zM297 164h31q102 0 159.5 59.5t57.5 165.5q0 105 -56.5 170.5t-160.5 65.5h-31
v-461z" />
    <glyph glyph-name="C" unicode="C" horiz-adv-x="682" 
d="M643 244v-185q-99 -77 -209 -77q-176 0 -272 180t-96 514t96.5 522t275.5 188q86 0 189 -71v-178q-88 86 -176 86q-106 0 -153.5 -124.5t-47.5 -414.5q0 -287 48 -413t159 -126q76 0 186 99z" />
    <glyph glyph-name="D" unicode="D" horiz-adv-x="854" 
d="M113 0v1368h194q469 0 469 -682q0 -341 -116.5 -513.5t-327.5 -172.5h-219zM289 164h26q156 0 220.5 119.5t64.5 394.5q0 287 -61 406.5t-220 119.5h-30v-1040z" />
    <glyph glyph-name="E" unicode="E" horiz-adv-x="745" 
d="M119 0v1368h487v-164h-311v-409h285v-164h-285v-467h328v-164h-504z" />
    <glyph glyph-name="F" unicode="F" horiz-adv-x="666" 
d="M119 0v1368h426v-164h-250v-407h233v-164h-233v-633h-176z" />
    <glyph glyph-name="G" unicode="G" horiz-adv-x="854" 
d="M762 735v-672q-124 -81 -242 -81q-208 0 -329 185t-121 515q0 325 117 514.5t313 189.5q118 0 262 -98v-188q-147 133 -254 133q-262 0 -262 -551q0 -537 278 -537q23 0 62 7v419h-121v164h297z" />
    <glyph glyph-name="H" unicode="H" horiz-adv-x="854" 
d="M121 0v1368h176v-602h260v602h176v-1368h-176v602h-260v-602h-176z" />
    <glyph glyph-name="I" unicode="I" horiz-adv-x="406" 
d="M115 0v1368h176v-1368h-176z" />
    <glyph glyph-name="J" unicode="J" horiz-adv-x="426" 
d="M-49 -406l-19 160q50 -4 78 -4q75 0 97 35t22 139v1444h176v-1415q0 -366 -271 -366q-39 0 -83 7z" />
    <glyph glyph-name="K" unicode="K" 
d="M123 0v1368h176v-1368h-176zM549 0l-244 694l193 674h180l-215 -651l268 -717h-182z" />
    <glyph glyph-name="L" unicode="L" horiz-adv-x="641" 
d="M121 0v1368h176v-1204h338v-164h-514z" />
    <glyph glyph-name="M" unicode="M" horiz-adv-x="938" 
d="M469 866l203 502h151v-1368h-172l11 989l-5 4l-172 -450h-32l-172 450l-5 -4l11 -989h-172v1368h151z" />
    <glyph glyph-name="N" unicode="N" horiz-adv-x="854" 
d="M121 0v1368h143l303 -844h4v844h162v-1368h-143l-303 852h-4v-852h-162z" />
    <glyph glyph-name="O" unicode="O" horiz-adv-x="874" 
d="M438 -18q-162 0 -264 187.5t-102 514.5q0 309 96.5 505.5t269.5 196.5q168 0 267.5 -196t99.5 -506q0 -330 -105 -516t-262 -186zM436 1223q-87 0 -133.5 -143.5t-46.5 -395.5q0 -261 48 -400t136 -139q84 0 132.5 142t48.5 397q0 259 -49 399t-136 140z" />
    <glyph glyph-name="P" unicode="P" horiz-adv-x="768" 
d="M127 0v1368h186q189 0 300.5 -101t111.5 -278q0 -181 -103 -285t-282 -104h-37v-600h-176zM303 764h31q215 0 215 235q0 211 -246 205v-440z" />
    <glyph glyph-name="Q" unicode="Q" horiz-adv-x="874" 
d="M834 -96l-115 -176q-188 20 -357 266q-290 120 -290 690q0 311 98 506.5t270 195.5q160 0 262.5 -190t102.5 -512q0 -510 -244 -666q99 -127 170 -127q37 0 72 33zM436 1223q-87 0 -133.5 -144.5t-46.5 -394.5q0 -261 48 -400t136 -139q86 0 133.5 142t47.5 397
q0 259 -49 399t-136 140z" />
    <glyph glyph-name="R" unicode="R" horiz-adv-x="748" 
d="M121 0v1368h147q176 0 268.5 -103.5t92.5 -275.5q0 -195 -142 -293q110 -78 187 -415l63 -281h-184l-53 236q-57 248 -99 315.5t-104 60.5v-612h-176zM297 776h8q148 0 148 207q0 220 -156 221v-428z" />
    <glyph glyph-name="S" unicode="S" horiz-adv-x="575" 
d="M66 35v182q79 -76 153 -76q55 0 94 39t39 94q0 47 -22 114t-118.5 247.5t-125.5 273.5t-29 164q0 138 78.5 225.5t200.5 87.5q69 0 147 -36v-166q-72 43 -123 43q-133 0 -133 -131q0 -48 22.5 -115.5t119 -246t125 -272t28.5 -165.5q0 -140 -78.5 -227.5t-203.5 -87.5
q-90 0 -174 53z" />
    <glyph glyph-name="T" unicode="T" horiz-adv-x="641" 
d="M231 0v1204h-211v164h598v-164h-210v-1204h-177z" />
    <glyph glyph-name="U" unicode="U" horiz-adv-x="831" 
d="M111 1368h176v-1028q0 -195 129 -195q57 0 93 49t36 138v1036h176v-1016q0 -180 -91 -275t-214 -95q-131 0 -218 99t-87 257v1030z" />
    <glyph glyph-name="V" unicode="V" horiz-adv-x="662" 
d="M270 -18l-252 1386h185l129 -922l127 922h184l-252 -1386h-121z" />
    <glyph glyph-name="W" unicode="W" horiz-adv-x="1237" 
d="M313 -18l-293 1386h185l162 -919h4l184 919h127l174 -940h4l172 940h185l-293 -1386h-121l-185 915h-4l-180 -915h-121z" />
    <glyph glyph-name="X" unicode="X" 
d="M16 0l240 727l-207 641h189l120 -453h4l123 453h189l-207 -641l242 -727h-189l-158 508h-4l-153 -508h-189z" />
    <glyph glyph-name="Y" unicode="Y" horiz-adv-x="641" 
d="M229 0v625l-215 743h181l118 -537h4l125 537h183l-219 -743v-625h-177z" />
    <glyph glyph-name="Z" unicode="Z" horiz-adv-x="598" 
d="M33 0l315 1204h-278v164h495l-315 -1204h315v-164h-532z" />
    <glyph glyph-name="bracketleft" unicode="[" horiz-adv-x="532" 
d="M164 -483v1851h354v-151h-194v-1549h194v-151h-354z" />
    <glyph glyph-name="backslash" unicode="\" horiz-adv-x="575" 
d="M555 -18h-145l-390 1386h146z" />
    <glyph glyph-name="bracketright" unicode="]" horiz-adv-x="532" 
d="M369 -483h-355v151h195v1549h-195v151h355v-1851z" />
    <glyph glyph-name="asciicircum" unicode="^" horiz-adv-x="961" 
d="M53 690l355 801h145l352 -801h-184l-242 598l-239 -598h-187z" />
    <glyph glyph-name="underscore" unicode="_" horiz-adv-x="1024" 
d="M-12 -154h1048v-102h-1048v102z" />
    <glyph glyph-name="grave" unicode="`" horiz-adv-x="682" 
d="M410 1055h-93l-145 299h195z" />
    <glyph glyph-name="a" unicode="a" horiz-adv-x="682" 
d="M659 168v-121q-75 -67 -124 -67q-89 0 -117 114q-88 -119 -174 -119q-71 0 -124.5 68.5t-53.5 161.5q0 107 75 182t271 188v87q0 118 -95 118q-97 0 -229 -149v184q122 117 242 117q100 0 170.5 -66t70.5 -178v-512q0 -53 25 -53q15 0 63 45zM412 231v234
q-189 -114 -189 -236q0 -45 22 -73.5t56 -28.5q42 0 76.5 45.5t34.5 58.5z" />
    <glyph glyph-name="b" unicode="b" 
d="M94 0v1368h160v-508h4q43 72 139 72q109 0 183.5 -120t74.5 -349q0 -227 -74 -352t-188 -125q-81 0 -139 67v-53h-160zM254 696v-471q42 -88 108 -88q130 0 130 328q0 151 -37 233t-103 82q-41 0 -69.5 -37.5t-28.5 -46.5z" />
    <glyph glyph-name="c" unicode="c" horiz-adv-x="575" 
d="M555 178v-153q-77 -50 -158 -50q-139 0 -232 133t-93 338q0 214 92 350t233 136q67 0 144 -33v-164q-72 45 -119 45q-85 0 -135.5 -88.5t-50.5 -240.5q0 -149 55 -236.5t147 -87.5q54 0 117 51z" />
    <glyph glyph-name="d" unicode="d" 
d="M631 0h-160v70h-4q-57 -84 -145 -84q-107 0 -181.5 126t-74.5 339q0 214 74 347.5t190 133.5q81 0 141 -74v510h160v-1368zM471 231v459q-32 90 -104 90q-64 0 -101 -87.5t-37 -246.5q0 -301 129 -301q48 0 80.5 38t32.5 48z" />
    <glyph glyph-name="e" unicode="e" horiz-adv-x="641" 
d="M547 213v-158q-85 -80 -187 -80q-138 0 -214 124t-76 356q0 226 66.5 351.5t185.5 125.5q248 0 243 -514h-336q0 -295 162 -295q88 0 156 90zM227 537h179q0 256 -93 256q-86 0 -86 -256z" />
    <glyph glyph-name="f" unicode="f" horiz-adv-x="385" 
d="M117 0v768h-72v139h72v144q0 335 319 335v-133q-84 0 -122 -50t-38 -161v-135h89v-139h-89v-768h-159z" />
    <glyph glyph-name="g" unicode="g" horiz-adv-x="682" 
d="M659 768h-120q51 -84 51 -221q0 -294 -254 -335q-46 -8 -65 -19.5t-19 -47.5q0 -27 19 -46.5t148.5 -45.5t183.5 -100t54 -174q0 -124 -87.5 -202.5t-227.5 -78.5q-129 0 -215 72.5t-86 179.5q0 156 156 223q-103 46 -103 133q0 96 127 146q-139 96 -139 311
q0 157 71.5 250.5t196.5 93.5h309v-139zM338 786q-50 0 -80.5 -59.5t-30.5 -163.5q0 -107 29.5 -167t81.5 -60q49 0 77.5 57.5t28.5 159.5q0 108 -29 170.5t-77 62.5zM338 -86q-67 0 -109.5 -40t-42.5 -103q0 -62 44 -100t116 -38q71 0 118.5 40t47.5 98q0 59 -51 101
t-123 42z" />
    <glyph glyph-name="h" unicode="h" 
d="M104 0v1368h160v-551h4q65 115 168 115q84 0 141.5 -67t57.5 -189v-676h-160v657q0 131 -84 131q-48 0 -87.5 -48t-39.5 -58v-682h-160z" />
    <glyph glyph-name="i" unicode="i" horiz-adv-x="362" 
d="M182 1202q-38 0 -65 27t-27 65q0 39 27 65.5t65 26.5t65 -26.5t27 -65.5q0 -38 -27 -65t-65 -27zM102 0v907h160v-907h-160z" />
    <glyph glyph-name="j" unicode="j" horiz-adv-x="342" 
d="M164 1202q-38 0 -65 27t-27 65q0 39 27 65.5t65 26.5t65 -26.5t27 -65.5q0 -38 -27 -65t-65 -27zM-10 -489v153q55 9 77.5 50t22.5 153v1040h160v-973q0 -161 -18 -231t-79 -126t-163 -66z" />
    <glyph glyph-name="k" unicode="k" horiz-adv-x="705" 
d="M98 0v1368h160v-1368h-160zM522 0l-248 467l228 440h168l-242 -430l272 -477h-178z" />
    <glyph glyph-name="l" unicode="l" horiz-adv-x="342" 
d="M90 0v1368h160v-1368h-160z" />
    <glyph glyph-name="m" unicode="m" horiz-adv-x="1087" 
d="M1004 0h-160v645q0 135 -86 135q-66 0 -127 -106v-674h-160v643q0 137 -88 137q-60 0 -125 -108v-672h-160v907h160v-98h4q66 113 168 113q117 0 186 -136q48 70 86.5 103t100.5 33q89 0 145 -69.5t56 -197.5v-655z" />
    <glyph glyph-name="n" unicode="n" 
d="M100 0v907h160v-98h4q67 113 168 113q90 0 144.5 -71t54.5 -198v-653h-160v649q0 131 -86 131q-48 0 -86.5 -49.5t-38.5 -58.5v-672h-160z" />
    <glyph glyph-name="o" unicode="o" horiz-adv-x="705" 
d="M352 -25q-131 0 -207.5 127.5t-76.5 350.5t76.5 351t207.5 128t208 -128t77 -351t-77 -350.5t-208 -127.5zM350 780q-119 0 -119 -327q0 -326 123 -326q119 0 119 326q0 327 -123 327z" />
    <glyph glyph-name="p" unicode="p" 
d="M100 -489v1396h160v-65h4q52 80 137 80q110 0 185.5 -137t75.5 -345q0 -206 -73.5 -335.5t-187.5 -129.5q-78 0 -137 80h-4v-544h-160zM260 690v-481q55 -82 111 -82q127 0 127 315q0 328 -142 328q-40 0 -68 -34.5t-28 -45.5z" />
    <glyph glyph-name="q" unicode="q" 
d="M471 -489v542h-4q-51 -78 -139 -78q-113 0 -187.5 129t-74.5 347q0 217 72 344t188 127q89 0 141 -82h4v67h160v-1396h-160zM471 217v461q-42 92 -111 92q-131 0 -131 -328q0 -149 38 -232t104 -83q44 0 72 40.5t28 49.5z" />
    <glyph glyph-name="r" unicode="r" horiz-adv-x="512" 
d="M104 0v907h160v-245h4q48 162 79.5 211t88.5 49q44 0 82 -27l-12 -164q-33 23 -70 23q-75 0 -123.5 -135t-48.5 -259v-360h-160z" />
    <glyph glyph-name="s" unicode="s" horiz-adv-x="512" 
d="M57 49v176q89 -98 158 -98q34 0 57 22t23 56q0 62 -90.5 197t-113.5 199.5t-23 117.5q0 92 55.5 152.5t140.5 60.5q77 0 152 -58v-151q-78 63 -137 63q-64 0 -64 -67q0 -57 93.5 -187.5t119 -198t25.5 -124.5q0 -101 -62 -167.5t-155 -66.5q-88 0 -179 74z" />
    <glyph glyph-name="t" unicode="t" horiz-adv-x="469" 
d="M446 152v-142q-81 -35 -141 -35q-168 0 -168 203v590h-104v14q114 139 250 359h14v-234h149v-139h-149v-518q0 -72 13.5 -97.5t49.5 -25.5q33 0 86 25z" />
    <glyph glyph-name="u" unicode="u" 
d="M618 907v-907h-159v98h-4q-64 -112 -162 -112q-91 0 -148 69t-57 191v661h160v-649q0 -129 86 -129q50 0 87.5 45.5t37.5 61.5v671h159z" />
    <glyph glyph-name="v" unicode="v" horiz-adv-x="618" 
d="M287 -20l-273 927h160l133 -518h4l133 518h160l-272 -927h-45z" />
    <glyph glyph-name="w" unicode="w" horiz-adv-x="918" 
d="M258 -20l-246 927h162l115 -487h4l135 487h61l136 -487h4l114 487h162l-246 -927h-45l-153 544h-4l-154 -544h-45z" />
    <glyph glyph-name="x" unicode="x" horiz-adv-x="662" 
d="M31 0l209 463l-209 444h168l125 -289l118 289h164l-196 -444l219 -463h-168l-137 313l-125 -313h-168z" />
    <glyph glyph-name="y" unicode="y" horiz-adv-x="641" 
d="M72 -500l184 660l-240 747h166l148 -473h4l131 473h160l-394 -1407h-159z" />
    <glyph glyph-name="z" unicode="z" horiz-adv-x="575" 
d="M29 0l282 768h-256v139h477l-286 -768h293v-139h-510z" />
    <glyph glyph-name="braceleft" unicode="{" horiz-adv-x="684" 
d="M59 360v164q111 3 159 72t48 256v154q0 214 67 305.5t238 91.5h68v-152h-31q-108 0 -140 -39.5t-32 -171.5v-145q0 -212 -48.5 -309.5t-162.5 -143.5q114 -45 162.5 -142.5t48.5 -309.5v-146q0 -131 32 -171t140 -40h31v-151h-68q-171 0 -238 91.5t-67 305.5v154
q0 187 -48 256t-159 71z" />
    <glyph glyph-name="bar" unicode="|" horiz-adv-x="1079" 
d="M461 1368h160v-1921h-160v1921z" />
    <glyph glyph-name="braceright" unicode="}" horiz-adv-x="684" 
d="M627 524v-164q-111 -2 -159 -71t-48 -256v-154q0 -214 -67 -305.5t-238 -91.5h-68v151h29q109 0 141.5 41t32.5 170v146q0 212 48.5 309.5t162.5 142.5q-114 46 -162.5 143.5t-48.5 309.5v145q0 132 -32 171.5t-140 39.5h-31v152h68q171 0 238 -91.5t67 -305.5v-154
q0 -187 48 -256t159 -72z" />
    <glyph glyph-name="asciitilde" unicode="~" horiz-adv-x="1343" 
d="M1212 846v-146q-152 -127 -282 -127q-101 0 -268.5 81t-237.5 81q-130 0 -293 -137v143q160 125 293 125q100 0 263.5 -80.5t236.5 -80.5q130 0 288 141z" />
    <glyph glyph-name="Adieresis" unicode="&#xc4;" 
d="M14 0l258 1376h183l256 -1376h-170l-49 303h-254l-54 -303h-170zM264 467h197l-96 573h-5zM395 1616q0 38 27.5 65t66.5 27q38 0 65 -27t27 -65t-27 -66t-65 -28t-66 28t-28 66zM147 1616q0 38 28 65t66 27t65 -27t27 -65t-27 -66t-65 -28t-66 28t-28 66z" />
    <glyph glyph-name="Aring" unicode="&#xc5;" 
d="M14 0l258 1376h183l256 -1376h-170l-49 303h-254l-54 -303h-170zM264 467h197l-96 573h-5zM205 1619q0 66 47 112t113 46t112 -46t46 -112t-46.5 -112.5t-111.5 -46.5q-66 0 -113 47t-47 112zM463 1619q0 42 -28.5 70.5t-69.5 28.5t-69.5 -28.5t-28.5 -70.5
q0 -41 28.5 -69.5t69.5 -28.5t69.5 28.5t28.5 69.5z" />
    <glyph glyph-name="Ccedilla" unicode="&#xc7;" horiz-adv-x="682" 
d="M250 -174l76 176q-260 110 -260 674q0 334 96.5 522t275.5 188q86 0 189 -71v-178q-88 86 -176 86q-106 0 -153.5 -124.5t-47.5 -414.5q0 -287 48 -413t159 -126q76 0 186 99v-185q-97 -74 -188 -75l-39 -90q114 -31 114 -152q0 -114 -99 -178t-284 -64v113
q220 0 220 119q0 84 -117 94z" />
    <glyph glyph-name="Eacute" unicode="&#xc9;" horiz-adv-x="745" 
d="M119 0v1368h487v-164h-311v-409h285v-164h-285v-467h328v-164h-504zM305 1464l43 299h195l-145 -299h-93z" />
    <glyph glyph-name="Ntilde" unicode="&#xd1;" horiz-adv-x="854" 
d="M121 0v1368h143l303 -844h4v844h162v-1368h-143l-303 852h-4v-852h-162zM137 1505q-9 102 34 160.5t128 58.5q51 0 139 -27.5t119 -27.5q52 0 72 55h88q3 -21 3 -41q0 -80 -46.5 -129t-114.5 -49q-43 0 -125.5 29.5t-111.5 29.5q-69 0 -93 -59h-92z" />
    <glyph glyph-name="Odieresis" unicode="&#xd6;" horiz-adv-x="874" 
d="M438 -18q-162 0 -264 187.5t-102 514.5q0 309 96.5 505.5t269.5 196.5q168 0 267.5 -196t99.5 -506q0 -330 -105 -516t-262 -186zM436 1223q-87 0 -133.5 -143.5t-46.5 -395.5q0 -261 48 -400t136 -139q84 0 132.5 142t48.5 397q0 259 -49 399t-136 140zM469 1616
q0 38 27.5 65t66.5 27q38 0 65 -27t27 -65t-27 -66t-65 -28t-66 28t-28 66zM221 1616q0 38 28 65t66 27t65 -27t27 -65t-27 -66t-65 -28t-66 28t-28 66z" />
    <glyph glyph-name="Udieresis" unicode="&#xdc;" horiz-adv-x="831" 
d="M111 1368h176v-1028q0 -195 129 -195q57 0 93 49t36 138v1036h176v-1016q0 -180 -91 -275t-214 -95q-131 0 -218 99t-87 257v1030zM449 1616q0 38 27.5 65t66.5 27q38 0 65 -27t27 -65t-27 -66t-65 -28t-66 28t-28 66zM201 1616q0 38 28 65t66 27t65 -27t27 -65t-27 -66
t-65 -28t-66 28t-28 66z" />
    <glyph glyph-name="aacute" unicode="&#xe1;" horiz-adv-x="682" 
d="M659 168v-121q-75 -67 -124 -67q-89 0 -117 114q-88 -119 -174 -119q-71 0 -124.5 68.5t-53.5 161.5q0 107 75 182t271 188v87q0 118 -95 118q-97 0 -229 -149v184q122 117 242 117q100 0 170.5 -66t70.5 -178v-512q0 -53 25 -53q15 0 63 45zM412 231v234
q-189 -114 -189 -236q0 -45 22 -73.5t56 -28.5q42 0 76.5 45.5t34.5 58.5zM272 1055l43 299h195l-145 -299h-93z" />
    <glyph glyph-name="agrave" unicode="&#xe0;" horiz-adv-x="682" 
d="M659 168v-121q-75 -67 -124 -67q-89 0 -117 114q-88 -119 -174 -119q-71 0 -124.5 68.5t-53.5 161.5q0 107 75 182t271 188v87q0 118 -95 118q-97 0 -229 -149v184q122 117 242 117q100 0 170.5 -66t70.5 -178v-512q0 -53 25 -53q15 0 63 45zM412 231v234
q-189 -114 -189 -236q0 -45 22 -73.5t56 -28.5q42 0 76.5 45.5t34.5 58.5zM410 1055h-93l-145 299h195z" />
    <glyph glyph-name="acircumflex" unicode="&#xe2;" horiz-adv-x="682" 
d="M659 168v-121q-75 -67 -124 -67q-89 0 -117 114q-88 -119 -174 -119q-71 0 -124.5 68.5t-53.5 161.5q0 107 75 182t271 188v87q0 118 -95 118q-97 0 -229 -149v184q122 117 242 117q100 0 170.5 -66t70.5 -178v-512q0 -53 25 -53q15 0 63 45zM412 231v234
q-189 -114 -189 -236q0 -45 22 -73.5t56 -28.5q42 0 76.5 45.5t34.5 58.5zM129 1051l113 307h198l113 -307h-92l-119 198l-121 -198h-92z" />
    <glyph glyph-name="adieresis" unicode="&#xe4;" horiz-adv-x="682" 
d="M659 168v-121q-75 -67 -124 -67q-89 0 -117 114q-88 -119 -174 -119q-71 0 -124.5 68.5t-53.5 161.5q0 107 75 182t271 188v87q0 118 -95 118q-97 0 -229 -149v184q122 117 242 117q100 0 170.5 -66t70.5 -178v-512q0 -53 25 -53q15 0 63 45zM412 231v234
q-189 -114 -189 -236q0 -45 22 -73.5t56 -28.5q42 0 76.5 45.5t34.5 58.5zM373 1206q0 38 27.5 65t66.5 27q38 0 65 -27t27 -65t-27 -66t-65 -28t-66 28t-28 66zM125 1206q0 38 28 65t66 27t65 -27t27 -65t-27 -66t-65 -28t-66 28t-28 66z" />
    <glyph glyph-name="atilde" unicode="&#xe3;" horiz-adv-x="682" 
d="M668 168v-121q-75 -67 -124 -67q-89 0 -117 114q-88 -119 -174 -119q-71 0 -124.5 68.5t-53.5 161.5q0 107 75 182t271 188v87q0 118 -95 118q-97 0 -229 -149v184q122 117 242 117q100 0 170.5 -66t70.5 -178v-512q0 -53 25 -53q15 0 63 45zM421 231v234
q-189 -114 -189 -236q0 -45 22 -73.5t56 -28.5q42 0 76.5 45.5t34.5 58.5zM60 1096q-9 102 34 160.5t128 58.5q51 0 139 -27.5t119 -27.5q52 0 72 55h88q3 -21 3 -41q0 -80 -46.5 -129t-114.5 -49q-43 0 -125.5 29.5t-111.5 29.5q-69 0 -93 -59h-92z" />
    <glyph glyph-name="aring" unicode="&#xe5;" horiz-adv-x="682" 
d="M659 168v-121q-75 -67 -124 -67q-89 0 -117 114q-88 -119 -174 -119q-71 0 -124.5 68.5t-53.5 161.5q0 107 75 182t271 188v87q0 118 -95 118q-97 0 -229 -149v184q122 117 242 117q100 0 170.5 -66t70.5 -178v-512q0 -53 25 -53q15 0 63 45zM412 231v234
q-189 -114 -189 -236q0 -45 22 -73.5t56 -28.5q42 0 76.5 45.5t34.5 58.5zM182 1210q0 66 47 112t113 46t112 -46t46 -112t-46.5 -112.5t-111.5 -46.5q-66 0 -113 47t-47 112zM440 1210q0 42 -28.5 70.5t-69.5 28.5t-69.5 -28.5t-28.5 -70.5q0 -41 28.5 -69.5t69.5 -28.5
t69.5 28.5t28.5 69.5z" />
    <glyph glyph-name="ccedilla" unicode="&#xe7;" horiz-adv-x="575" 
d="M217 -174l74 174q-102 46 -160.5 167.5t-58.5 278.5q0 214 92 350t233 136q67 0 144 -33v-164q-72 45 -119 45q-85 0 -135.5 -88.5t-50.5 -240.5q0 -149 55 -236.5t147 -87.5q54 0 117 51v-153q-71 -45 -135 -48l-37 -83q115 -31 115 -152q0 -114 -99.5 -178t-283.5 -64
v113q219 0 219 119q0 84 -117 94z" />
    <glyph glyph-name="eacute" unicode="&#xe9;" horiz-adv-x="641" 
d="M567 213v-158q-85 -80 -187 -80q-138 0 -214 124t-76 356q0 226 66.5 351.5t185.5 125.5q248 0 243 -514h-336q0 -295 162 -295q88 0 156 90zM247 537h179q0 256 -93 256q-86 0 -86 -256zM272 1055l43 299h195l-145 -299h-93z" />
    <glyph glyph-name="egrave" unicode="&#xe8;" horiz-adv-x="641" 
d="M567 213v-158q-85 -80 -187 -80q-138 0 -214 124t-76 356q0 226 66.5 351.5t185.5 125.5q248 0 243 -514h-336q0 -295 162 -295q88 0 156 90zM247 537h179q0 256 -93 256q-86 0 -86 -256zM410 1055h-93l-145 299h195z" />
    <glyph glyph-name="ecircumflex" unicode="&#xea;" horiz-adv-x="641" 
d="M567 213v-158q-85 -80 -187 -80q-138 0 -214 124t-76 356q0 226 66.5 351.5t185.5 125.5q248 0 243 -514h-336q0 -295 162 -295q88 0 156 90zM247 537h179q0 256 -93 256q-86 0 -86 -256zM129 1051l113 307h198l113 -307h-92l-119 198l-121 -198h-92z" />
    <glyph glyph-name="edieresis" unicode="&#xeb;" horiz-adv-x="641" 
d="M568 213v-158q-85 -80 -187 -80q-138 0 -214 124t-76 356q0 226 66.5 351.5t185.5 125.5q248 0 243 -514h-336q0 -295 162 -295q88 0 156 90zM248 537h179q0 256 -93 256q-86 0 -86 -256zM373 1206q0 38 27.5 65t66.5 27q38 0 65 -27t27 -65t-27 -66t-65 -28t-66 28
t-28 66zM125 1206q0 38 28 65t66 27t65 -27t27 -65t-27 -66t-65 -28t-66 28t-28 66z" />
    <glyph glyph-name="iacute" unicode="&#xed;" horiz-adv-x="362" 
d="M102 0v907h160v-907h-160zM113 1055l43 299h195l-145 -299h-93z" />
    <glyph glyph-name="igrave" unicode="&#xec;" horiz-adv-x="362" 
d="M102 0v907h160v-907h-160zM250 1055h-93l-145 299h195z" />
    <glyph glyph-name="icircumflex" unicode="&#xee;" horiz-adv-x="362" 
d="M102 0v907h160v-907h-160zM-31 1051l113 307h198l113 -307h-92l-119 198l-121 -198h-92z" />
    <glyph glyph-name="idieresis" unicode="&#xef;" horiz-adv-x="362" 
d="M102 0v907h160v-907h-160zM213 1206q0 38 27.5 65t66.5 27q38 0 65 -27t27 -65t-27 -66t-65 -28t-66 28t-28 66zM-35 1206q0 38 28 65t66 27t65 -27t27 -65t-27 -66t-65 -28t-66 28t-28 66z" />
    <glyph glyph-name="ntilde" unicode="&#xf1;" 
d="M100 0v907h160v-98h4q67 113 168 113q90 0 144.5 -71t54.5 -198v-653h-160v649q0 131 -86 131q-48 0 -86.5 -49.5t-38.5 -58.5v-672h-160zM73 1096q-9 102 34 160.5t128 58.5q51 0 139 -27.5t119 -27.5q52 0 72 55h88q3 -21 3 -41q0 -80 -46.5 -129t-114.5 -49
q-43 0 -125.5 29.5t-111.5 29.5q-69 0 -93 -59h-92z" />
    <glyph glyph-name="oacute" unicode="&#xf3;" horiz-adv-x="705" 
d="M352 -25q-131 0 -207.5 127.5t-76.5 350.5t76.5 351t207.5 128t208 -128t77 -351t-77 -350.5t-208 -127.5zM350 780q-119 0 -119 -327q0 -326 123 -326q119 0 119 326q0 327 -123 327zM285 1055l43 299h195l-145 -299h-93z" />
    <glyph glyph-name="ograve" unicode="&#xf2;" horiz-adv-x="705" 
d="M352 -25q-131 0 -207.5 127.5t-76.5 350.5t76.5 351t207.5 128t208 -128t77 -351t-77 -350.5t-208 -127.5zM350 780q-119 0 -119 -327q0 -326 123 -326q119 0 119 326q0 327 -123 327zM422 1055h-93l-145 299h195z" />
    <glyph glyph-name="ocircumflex" unicode="&#xf4;" horiz-adv-x="705" 
d="M352 -25q-131 0 -207.5 127.5t-76.5 350.5t76.5 351t207.5 128t208 -128t77 -351t-77 -350.5t-208 -127.5zM350 780q-119 0 -119 -327q0 -326 123 -326q119 0 119 326q0 327 -123 327zM141 1051l113 307h198l113 -307h-92l-119 198l-121 -198h-92z" />
    <glyph glyph-name="odieresis" unicode="&#xf6;" horiz-adv-x="705" 
d="M352 -25q-131 0 -207.5 127.5t-76.5 350.5t76.5 351t207.5 128t208 -128t77 -351t-77 -350.5t-208 -127.5zM350 780q-119 0 -119 -327q0 -326 123 -326q119 0 119 326q0 327 -123 327zM385 1206q0 38 27.5 65t66.5 27q38 0 65 -27t27 -65t-27 -66t-65 -28t-66 28t-28 66z
M137 1206q0 38 28 65t66 27t65 -27t27 -65t-27 -66t-65 -28t-66 28t-28 66z" />
    <glyph glyph-name="otilde" unicode="&#xf5;" horiz-adv-x="705" 
d="M352 -25q-131 0 -207.5 127.5t-76.5 350.5t76.5 351t207.5 128t208 -128t77 -351t-77 -350.5t-208 -127.5zM350 780q-119 0 -119 -327q0 -326 123 -326q119 0 119 326q0 327 -123 327zM63 1096q-9 102 34 160.5t128 58.5q51 0 139 -27.5t119 -27.5q52 0 72 55h88
q3 -21 3 -41q0 -80 -46.5 -129t-114.5 -49q-43 0 -125.5 29.5t-111.5 29.5q-69 0 -93 -59h-92z" />
    <glyph glyph-name="uacute" unicode="&#xfa;" 
d="M618 907v-907h-159v98h-4q-64 -112 -162 -112q-91 0 -148 69t-57 191v661h160v-649q0 -129 86 -129q50 0 87.5 45.5t37.5 61.5v671h159zM295 1055l43 299h195l-145 -299h-93z" />
    <glyph glyph-name="ugrave" unicode="&#xf9;" 
d="M618 907v-907h-159v98h-4q-64 -112 -162 -112q-91 0 -148 69t-57 191v661h160v-649q0 -129 86 -129q50 0 87.5 45.5t37.5 61.5v671h159zM433 1055h-93l-145 299h195z" />
    <glyph glyph-name="ucircumflex" unicode="&#xfb;" 
d="M618 907v-907h-159v98h-4q-64 -112 -162 -112q-91 0 -148 69t-57 191v661h160v-649q0 -129 86 -129q50 0 87.5 45.5t37.5 61.5v671h159zM152 1051l113 307h198l113 -307h-92l-119 198l-121 -198h-92z" />
    <glyph glyph-name="udieresis" unicode="&#xfc;" 
d="M618 907v-907h-159v98h-4q-64 -112 -162 -112q-91 0 -148 69t-57 191v661h160v-649q0 -129 86 -129q50 0 87.5 45.5t37.5 61.5v671h159zM395 1206q0 38 27.5 65t66.5 27q38 0 65 -27t27 -65t-27 -66t-65 -28t-66 28t-28 66zM147 1206q0 38 28 65t66 27t65 -27t27 -65
t-27 -66t-65 -28t-66 28t-28 66z" />
    <glyph glyph-name="dagger" unicode="&#x2020;" 
d="M332 784q-144 -47 -195 -47q-36 0 -61 23t-25 55q0 74 92 74q71 0 189 -41q-53 215 -53 360q0 178 83 178q87 0 87 -178q0 -137 -56 -360q129 41 191 41q92 0 92 -74q0 -32 -26 -55t-62 -23q-54 0 -195 47q0 -138 33 -400t33 -468q0 -224 -20 -322t-77 -98q-56 0 -75 97
t-19 323q0 250 31.5 487.5t32.5 380.5z" />
    <glyph glyph-name="degree" unicode="&#xb0;" horiz-adv-x="819" 
d="M131 1214q0 115 82 196t197 81q114 0 195 -81t81 -196q0 -114 -81 -196t-195 -82q-115 0 -197 82t-82 196zM580 1214q0 70 -50 119t-120 49q-71 0 -119.5 -48.5t-48.5 -119.5q0 -70 49 -120t119 -50t120 50t50 120z" />
    <glyph glyph-name="cent" unicode="&#xa2;" horiz-adv-x="575" 
d="M326 -221v205q-121 34 -190.5 161t-69.5 301q0 183 69 313t191 165v157h116v-153q55 -12 93 -29v-164q-69 43 -119 43q-87 0 -137 -87t-50 -240q0 -147 55 -232.5t146 -85.5q61 0 119 45v-153q-52 -35 -107 -43v-203h-116z" />
    <glyph glyph-name="sterling" unicode="&#xa3;" horiz-adv-x="748" 
d="M129 -23l74 615h-86v160h106q49 354 138 493.5t294 140.5l47 -157q-148 11 -205 -86.5t-98 -390.5h117v-160h-143l-47 -426q12 2 32 2q57 0 125.5 -18.5t100.5 -18.5q56 0 129 31v-158q-70 -29 -144 -29q-44 0 -140 24t-140 24q-79 0 -148 -46h-12z" />
    <glyph glyph-name="section" unicode="&#xa7;" horiz-adv-x="705" 
d="M528 76q72 -130 72 -240q0 -139 -86.5 -238.5t-206.5 -99.5q-92 0 -157.5 55t-65.5 132q0 44 28.5 74t69.5 30q42 0 68 -25t26 -63q0 -8 -4 -25t-4 -24q0 -31 51 -31q52 0 93 52.5t41 119.5q0 65 -33 138.5t-162.5 221t-164 226t-34.5 147.5q0 165 113 279
q-74 128 -74 242q0 138 85.5 236.5t203.5 98.5q94 0 160.5 -54t66.5 -130q0 -47 -29.5 -77.5t-74.5 -30.5q-38 0 -63 24.5t-25 61.5q0 9 5 29.5t5 27.5q0 27 -45 27q-58 0 -98.5 -51.5t-40.5 -125.5q0 -64 33.5 -138.5t163 -221.5t163 -222.5t33.5 -140.5q0 -151 -113 -284z
M248 690q-47 -65 -47 -131q0 -43 23.5 -93.5t108 -143.5t116.5 -132q49 71 49 134q0 40 -20.5 84.5t-106 139t-123.5 142.5z" />
    <glyph glyph-name="bullet" unicode="&#x2022;" horiz-adv-x="717" 
d="M106 719q0 103 75 177.5t179 74.5t178 -74t74 -178t-74 -179t-178 -75q-103 0 -178.5 75t-75.5 179z" />
    <glyph glyph-name="paragraph" unicode="&#xb6;" horiz-adv-x="1102" 
d="M569 -408h-170v1045q-191 12 -297 123t-106 287q0 186 119.5 302.5t312.5 116.5h674v-174h-144v-1700h-170v1700h-219v-1700z" />
    <glyph glyph-name="germandbls" unicode="&#xdf;" 
d="M94 0v997q0 149 20 220.5t83 120t151 48.5q120 0 192 -88t72 -235q0 -187 -129 -268q176 -60 176 -389q0 -224 -73.5 -321t-169.5 -97q-48 0 -82 18v135q13 -4 35 -4q68 0 97.5 71t29.5 228q0 151 -35 209t-117 62v145q119 5 119 207q0 198 -113 198q-96 0 -96 -141
v-1116h-160z" />
    <glyph glyph-name="registered" unicode="&#xae;" horiz-adv-x="1511" 
d="M0 737q0 312 222 533t534 221t532.5 -221t220.5 -533t-221 -533.5t-532 -221.5q-312 0 -534 221.5t-222 533.5zM1386 737q0 260 -185 444.5t-445 184.5t-444.5 -184.5t-184.5 -444.5t184.5 -445.5t444.5 -185.5t445 185.5t185 445.5zM424 319v811h344q137 0 210 -61.5
t73 -159.5q0 -88 -63.5 -152.5t-168.5 -72.5v-4q73 -18 189 -203l98 -158h-160l-72 127q-69 123 -113 170.5t-128 47.5h-78v-345h-131zM555 776h197q159 0 159 123q0 121 -157 121h-199v-244z" />
    <glyph glyph-name="copyright" unicode="&#xa9;" horiz-adv-x="1511" 
d="M0 737q0 312 222 533t534 221t532.5 -221t220.5 -533t-221 -533.5t-532 -221.5q-312 0 -534 221.5t-222 533.5zM1386 737q0 260 -185 444.5t-445 184.5t-444.5 -184.5t-184.5 -444.5t184.5 -445.5t444.5 -185.5t445 185.5t185 445.5zM997 614l123 -36
q-32 -131 -129.5 -203t-234.5 -72q-180 0 -288 117t-108 313q0 198 108.5 312t295.5 114q269 0 342 -235l-119 -29q-63 154 -227 154q-119 0 -191.5 -87t-72.5 -231q0 -143 68 -226t186 -83q193 0 247 192z" />
    <glyph glyph-name="trademark" unicode="&#x2122;" horiz-adv-x="2048" 
d="M489 651v697h-264v118h666v-118h-266v-697h-136zM983 651v815h199l198 -651h4l203 651h197v-815h-125v684h-4l-213 -684h-119l-213 684h-4v-684h-123z" />
    <glyph glyph-name="acute" unicode="&#xb4;" horiz-adv-x="682" 
d="M272 1055l43 299h195l-145 -299h-93z" />
    <glyph glyph-name="dieresis" unicode="&#xa8;" horiz-adv-x="682" 
d="M373 1206q0 38 27.5 65t66.5 27q38 0 65 -27t27 -65t-27 -66t-65 -28t-66 28t-28 66zM125 1206q0 38 28 65t66 27t65 -27t27 -65t-27 -66t-65 -28t-66 28t-28 66z" />
    <glyph glyph-name="notequal" unicode="&#x2260;" horiz-adv-x="1124" 
d="M1106 279h-621l-184 -330l-100 57l151 273h-321v112h385l157 285h-542v112h606l186 336l101 -57l-156 -279h338v-112h-399l-160 -285h559v-112z" />
    <glyph glyph-name="AE" unicode="&#xc6;" horiz-adv-x="1024" 
d="M12 0l289 1368h660v-164h-310v-405h287v-164h-287v-471h328v-164h-504v541h-190l-115 -541h-158zM315 705h160v583h-41z" />
    <glyph glyph-name="Oslash" unicode="&#xd8;" horiz-adv-x="874" 
d="M203 121l-72 -139l-98 53l108 207q-69 161 -69 442q0 309 96.5 505.5t269.5 196.5q136 0 232 -137l71 137l97 -51l-107 -205q74 -173 74 -446q0 -330 -105 -516t-262 -186q-137 0 -235 139zM266 477l309 592q-43 154 -139 154q-87 0 -133.5 -144t-46.5 -395l6 -207h4z
M606 897l-307 -594q45 -158 141 -158q84 0 132.5 142t48.5 397q0 155 -11 213h-4z" />
    <glyph glyph-name="infinity" unicode="&#x221e;" horiz-adv-x="1460" 
d="M689 812q105 132 164 174q80 58 169 58q105 0 196.5 -76t91.5 -245q0 -118 -34 -185.5t-106 -108.5t-148 -41q-89 0 -169 57q-59 43 -164 175q-136 -171 -289 -171q-101 0 -173.5 76.5t-72.5 190.5q0 113 72.5 190t173.5 77q153 0 289 -171zM758 717q87 -135 159 -185
q46 -33 103 -33q76 0 127.5 56t51.5 158q0 106 -52.5 162t-130.5 56q-49 0 -92 -28q-58 -39 -166 -186zM620 716q-80 100 -128 128.5t-92 28.5q-58 0 -96.5 -41t-38.5 -113q0 -71 40 -113.5t97 -42.5q101 0 218 153z" />
    <glyph glyph-name="plusminus" unicode="&#xb1;" horiz-adv-x="1366" 
d="M199 829h399v400h170v-400h399v-170h-399v-399h-170v399h-399v170zM199 168h968v-170h-968v170z" />
    <glyph glyph-name="lessequal" unicode="&#x2264;" horiz-adv-x="1124" 
d="M1077 240l-1018 471v127l1018 471v-127l-887 -408l887 -407v-127zM1077 0h-1018v112h1018v-112z" />
    <glyph glyph-name="greaterequal" unicode="&#x2265;" horiz-adv-x="1124" 
d="M1077 711l-1018 -471v127l887 407l-887 408v127l1018 -471v-127zM1077 0h-1018v112h1018v-112z" />
    <glyph glyph-name="yen" unicode="&#xa5;" horiz-adv-x="641" 
d="M233 299h-251v119h251v141h-251v119h235l-201 690h183l125 -539l122 539h181l-201 -690h233v-119h-249v-141h249v-119h-249v-299h-177v299z" />
    <glyph glyph-name="uni00B5" unicode="&#xb5;" horiz-adv-x="1139" 
d="M305 907h160v-602q0 -145 104 -145q105 0 105 145v602h160v-907h-160v82h-4q-17 -98 -101 -98q-26 0 -60 24t-40 72h-4v-420h-160v1247z" />
    <glyph glyph-name="partialdiff" unicode="&#x2202;" horiz-adv-x="1012" 
d="M422 1138l-135 60q70 157 168 225t192 68q76 0 137.5 -39.5t92.5 -90.5q47 -79 69.5 -187t22.5 -248q0 -288 -86.5 -512.5t-233.5 -331.5t-289 -107q-137 0 -222.5 91t-85.5 256q0 226 153 387q197 207 649 215q-4 168 -24 256t-68 135.5t-113 47.5q-62 0 -121 -49.5
t-106 -175.5zM850 796q-244 -14 -357.5 -68t-187 -176.5t-73.5 -248.5q0 -83 51 -137t119 -54q75 0 160 55q117 76 190.5 234.5t97.5 394.5z" />
    <glyph glyph-name="summation" unicode="&#x2211;" horiz-adv-x="1460" 
d="M139 1491h1237v-164h-988l607 -775l-649 -822h1040v-161h-1264v187l620 788l-603 772v175z" />
    <glyph glyph-name="product" unicode="&#x220f;" horiz-adv-x="1686" 
d="M161 1491h1362v-1922h-191v1748h-978v-1748h-193v1922z" />
    <glyph glyph-name="pi" unicode="&#x3c0;" horiz-adv-x="1124" 
d="M1085 309q-5 -155 -75.5 -248.5t-167.5 -93.5q-79 0 -138.5 91.5t-59.5 281.5q0 42 2 80t5 72l35 329h-231q-60 -624 -98.5 -742.5t-130.5 -118.5q-39 0 -74 31t-35 82q0 46 72.5 128.5t80.5 150.5l60 469h-97q-40 0 -78.5 -19.5t-56.5 -45.5l-43 -64h-35
q49 152 120.5 228.5t164.5 76.5h764v-176h-258q-12 -120 -18.5 -240t-6.5 -241q0 -82 38 -133t95 -51q35 0 73.5 28.5t43.5 74.5q3 22 4.5 34.5t1.5 15.5h43z" />
    <glyph glyph-name="integral" unicode="&#x222b;" horiz-adv-x="561" 
d="M602 1760q0 -39 -29.5 -64t-75.5 -25q-37 0 -60 25t-44 25q-18 0 -27.5 -14.5t-9.5 -43.5q0 -34 19.5 -256t19.5 -551q0 -505 -30 -709.5t-79 -282.5q-26 -41 -67.5 -62t-85.5 -21q-49 0 -86 35t-37 85q0 38 25.5 65t64.5 27q34 0 65.5 -33t44.5 -33q25 0 39.5 44.5
t14.5 153.5q0 37 -6 197t-6 562q0 481 17 638.5t41 215.5q29 70 69 104t84 34q57 0 98 -32.5t41 -83.5z" />
    <glyph glyph-name="ordfeminine" unicode="&#xaa;" horiz-adv-x="426" 
d="M428 950v-106q-54 -47 -90 -47q-52 0 -80 55q-56 -57 -106 -57q-52 0 -89.5 44t-37.5 105q0 74 55 124t166 103v41q0 58 -47 58q-62 0 -160 -107v148q87 75 166 75q74 0 121 -43t47 -116v-295q0 -22 11 -22q15 0 44 40zM246 961v114q-96 -63 -96 -117q0 -49 38 -49
q28 0 58 52z" />
    <glyph glyph-name="ordmasculine" unicode="&#xba;" horiz-adv-x="449" 
d="M223 795q-86 0 -140 79.5t-54 210.5q0 140 53 220.5t143 80.5q89 0 141 -80t52 -219q0 -134 -53.5 -213t-141.5 -79zM225 1266q-67 0 -67 -174q0 -179 65 -179q66 0 66 179q0 174 -64 174z" />
    <glyph glyph-name="uni2126" unicode="&#x2126;" horiz-adv-x="1573" 
d="M496 160q-108 67 -165 130q-87 96 -134 225.5t-47 286.5q0 196 79.5 360.5t231 252.5t347.5 88q336 0 516 -254q131 -186 131 -448q0 -168 -54 -297.5t-141 -222.5q-53 -58 -149 -121l364 6v-166h-575v177q80 40 124 78q72 61 122 145t75.5 179t25.5 198
q0 138 -49.5 277.5t-150 212.5t-243.5 73q-191 0 -296 -120q-146 -169 -146 -440q0 -217 91 -372.5t251 -227.5v-180h-577v168z" />
    <glyph glyph-name="ae" unicode="&#xe6;" horiz-adv-x="981" 
d="M92 643v178q112 111 242 111q116 0 184 -90q62 90 156 90q128 0 192.5 -134t53.5 -380h-340q-18 -299 163 -299q82 0 160 82v-148q-81 -78 -186 -78q-162 0 -252 146q-100 -146 -215 -146q-79 0 -131.5 64.5t-52.5 163.5q0 124 90 197t262 175q4 33 4 61q0 144 -103 144
q-111 0 -227 -137zM578 537h186q-2 129 -23 192.5t-73 63.5q-100 0 -90 -256zM420 201v264q-110 -65 -155.5 -114.5t-45.5 -119.5q0 -112 88 -112q60 0 113 82z" />
    <glyph glyph-name="oslash" unicode="&#xf8;" horiz-adv-x="705" 
d="M176 61l-43 -73l-84 51l68 115q-49 141 -49 299q0 223 76.5 351t207.5 128q105 0 174 -84l45 76l84 -47l-69 -119q51 -132 51 -305q0 -223 -77 -350.5t-208 -127.5q-109 0 -176 86zM236 350l204 352q-32 78 -90 78q-119 0 -119 -327v-103h5zM469 563l-205 -352
q32 -84 90 -84q119 0 119 326v110h-4z" />
    <glyph glyph-name="questiondown" unicode="&#xbf;" horiz-adv-x="512" 
d="M393 819q0 -45 -33 -77.5t-79 -32.5t-78.5 32t-32.5 78t32.5 79.5t78.5 33.5q45 0 78.5 -33.5t33.5 -79.5zM446 -270l-127 -197q-134 11 -210 91t-76 202q0 57 22.5 126.5t115 222.5t117.5 236t23 152q107 -51 107 -180q0 -57 -20 -125.5t-98.5 -206.5t-78.5 -209
q0 -51 37 -89t88 -38q37 0 86 27z" />
    <glyph glyph-name="exclamdown" unicode="&#xa1;" horiz-adv-x="362" 
d="M293 819q0 -45 -33.5 -77.5t-79.5 -32.5t-78 32t-32 78t32.5 79.5t77.5 33.5q46 0 79.5 -33.5t33.5 -79.5zM285 -219q0 -248 -105 -248q-104 0 -104 248q0 199 37.5 470t66.5 271q30 0 67.5 -271t37.5 -470z" />
    <glyph glyph-name="logicalnot" unicode="&#xac;" horiz-adv-x="1366" 
d="M199 1030h968v-612h-170v442h-798v170z" />
    <glyph glyph-name="radical" unicode="&#x221a;" horiz-adv-x="1124" 
d="M1055 1868l-307 -1946l-498 1028l-197 -96l-33 68l299 147l404 -825l260 1634z" />
    <glyph glyph-name="florin" unicode="&#x192;" horiz-adv-x="1139" 
d="M748 907h170l-25 -139h-172l-176 -1012q-24 -136 -86 -198t-180 -62q-106 0 -179 33l35 154q78 -35 137 -35q37 0 59.5 19.5t37.5 107.5l170 993h-166l22 139h168l37 221q23 139 82.5 198.5t175.5 59.5q78 0 184 -36l-34 -154q-77 27 -138 27q-38 0 -57.5 -29t-38.5 -135
z" />
    <glyph glyph-name="approxequal" unicode="&#x2248;" horiz-adv-x="1124" 
d="M1022 874h51q-21 -155 -95.5 -238t-186.5 -83q-97 0 -304 117q-139 78 -211 78q-149 0 -178 -187h-47q20 154 93.5 238t181.5 84q47 0 107 -19.5t224 -107.5q118 -62 193 -62q144 0 172 180zM1022 487h51q-21 -155 -95.5 -238t-186.5 -83q-96 0 -268.5 97t-246.5 97
q-149 0 -178 -186h-47q20 153 93.5 236.5t181.5 83.5q47 0 112 -21.5t219 -103.5q118 -62 193 -62q144 0 172 180z" />
    <glyph glyph-name="uni2206" unicode="&#x2206;" horiz-adv-x="1253" 
d="M668 1409l577 -1409h-1233zM594 1059l-447 -959h844z" />
    <glyph glyph-name="guillemotleft" unicode="&#xab;" horiz-adv-x="748" 
d="M524 453l156 -478h-141l-160 478l160 477h141zM209 453l156 -478h-142l-160 478l160 477h142z" />
    <glyph glyph-name="guillemotright" unicode="&#xbb;" horiz-adv-x="748" 
d="M539 453l-156 477h141l160 -477l-160 -478h-141zM223 453l-155 477h141l160 -477l-160 -478h-141z" />
    <glyph glyph-name="ellipsis" unicode="&#x2026;" horiz-adv-x="2048" 
d="M1595 94q0 46 33.5 78.5t79.5 32.5t78.5 -32.5t32.5 -78.5t-32.5 -79t-78.5 -33t-79.5 33t-33.5 79zM913 94q0 46 33.5 78.5t79.5 32.5t78.5 -32.5t32.5 -78.5t-32.5 -79t-78.5 -33t-79.5 33t-33.5 79zM231 94q0 46 33.5 78.5t79.5 32.5t78.5 -32.5t32.5 -78.5t-32.5 -79
t-78.5 -33t-79.5 33t-33.5 79z" />
    <glyph glyph-name="uni00A0" unicode="&#xa0;" horiz-adv-x="682" 
 />
    <glyph glyph-name="Agrave" unicode="&#xc0;" 
d="M14 0l258 1376h183l256 -1376h-170l-49 303h-254l-54 -303h-170zM264 467h197l-96 573h-5zM433 1464h-93l-145 299h195z" />
    <glyph glyph-name="Atilde" unicode="&#xc3;" 
d="M14 0l258 1376h183l256 -1376h-170l-49 303h-254l-54 -303h-170zM264 467h197l-96 573h-5zM73 1505q-9 102 34 160.5t128 58.5q51 0 139 -27.5t119 -27.5q52 0 72 55h88q3 -21 3 -41q0 -80 -46.5 -129t-114.5 -49q-43 0 -125.5 29.5t-111.5 29.5q-69 0 -93 -59h-92z" />
    <glyph glyph-name="Otilde" unicode="&#xd5;" horiz-adv-x="874" 
d="M438 -18q-162 0 -264 187.5t-102 514.5q0 309 96.5 505.5t269.5 196.5q168 0 267.5 -196t99.5 -506q0 -330 -105 -516t-262 -186zM436 1223q-87 0 -133.5 -143.5t-46.5 -395.5q0 -261 48 -400t136 -139q84 0 132.5 142t48.5 397q0 259 -49 399t-136 140zM147 1505
q-9 102 34 160.5t128 58.5q51 0 139 -27.5t119 -27.5q52 0 72 55h88q3 -21 3 -41q0 -80 -46.5 -129t-114.5 -49q-43 0 -125.5 29.5t-111.5 29.5q-69 0 -93 -59h-92z" />
    <glyph glyph-name="OE" unicode="&#x152;" horiz-adv-x="1067" 
d="M1028 0h-491q-225 0 -346 170t-121 489q0 709 475 709h471v-164h-283v-405h271v-164h-271v-471h295v-164zM557 162v1042h-12q-299 0 -299 -528q0 -253 80 -383.5t231 -130.5z" />
    <glyph glyph-name="oe" unicode="&#x153;" horiz-adv-x="1067" 
d="M975 213v-158q-87 -80 -191 -80q-143 0 -219 125q-82 -125 -209 -125q-131 0 -209.5 129t-78.5 349q0 223 78 351t210 128q122 0 201 -111q68 111 184 111q258 0 254 -514h-348q0 -295 170 -295q84 0 158 90zM647 537h187q0 147 -25 201.5t-74 54.5q-47 0 -67.5 -54
t-20.5 -202zM358 780q-127 0 -127 -323q0 -330 129 -330q123 0 123 322q0 331 -125 331z" />
    <glyph glyph-name="endash" unicode="&#x2013;" horiz-adv-x="1024" 
d="M1036 510v-92h-1048v92h1048z" />
    <glyph glyph-name="emdash" unicode="&#x2014;" horiz-adv-x="2048" 
d="M2060 510v-92h-2072v92h2072z" />
    <glyph glyph-name="quotedblleft" unicode="&#x201c;" horiz-adv-x="662" 
d="M584 1386l2 -18q-68 -101 -58 -231q86 -22 86 -109q0 -49 -31.5 -83t-78.5 -34q-58 0 -94.5 50.5t-36.5 132.5q0 202 211 292zM262 1386l2 -18q-68 -101 -57 -231q86 -22 86 -109q0 -49 -32 -83t-79 -34q-58 0 -94.5 50.5t-36.5 132.5q0 202 211 292z" />
    <glyph glyph-name="quotedblright" unicode="&#x201d;" horiz-adv-x="662" 
d="M399 911l-2 19q68 100 58 231q-86 22 -86 109q0 49 31.5 82.5t78.5 33.5q58 0 94.5 -50t36.5 -132q0 -202 -211 -293zM78 911l-2 19q68 100 57 231q-86 22 -86 109q0 49 32 82.5t79 33.5q58 0 94.5 -50t36.5 -132q0 -202 -211 -293z" />
    <glyph glyph-name="quoteleft" unicode="&#x2018;" horiz-adv-x="362" 
d="M276 1386l3 -18q-69 -101 -58 -231q86 -22 86 -109q0 -49 -31.5 -83t-78.5 -34q-58 0 -94.5 50.5t-36.5 132.5q0 202 210 292z" />
    <glyph glyph-name="quoteright" unicode="&#x2019;" horiz-adv-x="362" 
d="M86 911l-2 19q68 100 57 231q-86 22 -86 109q0 49 32 82.5t79 33.5q58 0 94.5 -50t36.5 -132q0 -202 -211 -293z" />
    <glyph glyph-name="divide" unicode="&#xf7;" horiz-adv-x="1368" 
d="M584 1104q0 41 29.5 70.5t70.5 29.5q42 0 72 -29.5t30 -70.5t-30.5 -72t-71.5 -31t-70.5 30.5t-29.5 72.5zM201 807h968v-170h-968v170zM584 342q0 41 29.5 70.5t70.5 29.5q42 0 72 -29.5t30 -70.5t-30.5 -71.5t-71.5 -30.5t-70.5 30t-29.5 72z" />
    <glyph glyph-name="lozenge" unicode="&#x25ca;" horiz-adv-x="1012" 
d="M962 763l-397 -763h-122l-397 763l397 763h122zM839 763l-335 652l-335 -652l335 -652z" />
    <glyph glyph-name="ydieresis" unicode="&#xff;" horiz-adv-x="641" 
d="M93 -500l184 660l-240 747h166l148 -473h4l131 473h160l-394 -1407h-159zM373 1206q0 38 27.5 65t66.5 27q38 0 65 -27t27 -65t-27 -66t-65 -28t-66 28t-28 66zM125 1206q0 38 28 65t66 27t65 -27t27 -65t-27 -66t-65 -28t-66 28t-28 66z" />
    <glyph glyph-name="Ydieresis" unicode="&#x178;" horiz-adv-x="641" 
d="M250 0v625l-215 743h181l118 -537h4l125 537h183l-219 -743v-625h-177zM373 1616q0 38 27.5 65t66.5 27q38 0 65 -27t27 -65t-27 -66t-65 -28t-66 28t-28 66zM125 1616q0 38 28 65t66 27t65 -27t27 -65t-27 -66t-65 -28t-66 28t-28 66z" />
    <glyph glyph-name="uni2044" unicode="&#x2044;" horiz-adv-x="362" 
d="M-238 -61l703 1447h125l-699 -1447h-129z" />
    <glyph glyph-name="uni2044" unicode="&#x2215;" horiz-adv-x="362" 
d="M-238 -61l703 1447h125l-699 -1447h-129z" />
    <glyph glyph-name="Euro" unicode="&#x20ac;" horiz-adv-x="748" 
d="M709 33q-55 -38 -105 -48t-129 -10q-169 0 -273.5 137.5t-129.5 401.5h-86l20 119h60v92h-80l20 119h68q28 262 133 400t274 138q129 0 217 -55l-24 -166q-70 62 -180 62q-208 0 -240 -379h375l-21 -119h-362v-92h346l-21 -119h-319q36 -377 250 -377q56 0 98.5 14
t108.5 66v-184z" />
    <glyph glyph-name="guilsinglleft" unicode="&#x2039;" horiz-adv-x="299" 
d="M143 453l156 -478h-141l-160 478l160 477h141z" />
    <glyph glyph-name="guilsinglright" unicode="&#x203a;" horiz-adv-x="299" 
d="M156 453l-156 477h141l160 -477l-160 -478h-141z" />
    <glyph glyph-name="uniF001" unicode="&#xf001;" horiz-adv-x="748" 
d="M113 0v768h-90v139h90v133q0 346 319 346v-133q-85 0 -122.5 -48.5t-37.5 -176.5v-121h131v-139h-131v-768h-159zM475 1217q0 38 27 65t65 27q39 0 65.5 -27t26.5 -65q0 -39 -26.5 -66t-65.5 -27q-38 0 -65 27t-27 66zM487 0v907h160v-907h-160z" />
    <glyph glyph-name="uniF001" unicode="&#xfb01;" horiz-adv-x="748" 
d="M113 0v768h-90v139h90v133q0 346 319 346v-133q-85 0 -122.5 -48.5t-37.5 -176.5v-121h131v-139h-131v-768h-159zM475 1217q0 38 27 65t65 27q39 0 65.5 -27t26.5 -65q0 -39 -26.5 -66t-65.5 -27q-38 0 -65 27t-27 66zM487 0v907h160v-907h-160z" />
    <glyph glyph-name="uniF002" unicode="&#xf002;" horiz-adv-x="748" 
d="M113 0v768h-90v139h90v129q0 350 319 350v-133q-87 0 -123.5 -49t-36.5 -176v-121h131v-139h-131v-768h-159zM487 0v1368h160v-1368h-160z" />
    <glyph glyph-name="uniF002" unicode="&#xfb02;" horiz-adv-x="748" 
d="M113 0v768h-90v139h90v129q0 350 319 350v-133q-87 0 -123.5 -49t-36.5 -176v-121h131v-139h-131v-768h-159zM487 0v1368h160v-1368h-160z" />
    <glyph glyph-name="daggerdbl" unicode="&#x2021;" 
d="M332 37q-123 -41 -191 -41q-90 0 -90 76q0 31 25 53t61 22q60 0 195 -47q0 116 -14 229l-13 111l14 132q13 148 13 210q-144 -47 -195 -47q-36 0 -61 23t-25 55q0 74 92 74q63 0 189 -41q-53 215 -53 362q0 178 83 178q87 0 87 -178q0 -139 -56 -362q127 41 191 41
q92 0 92 -74q0 -32 -26 -55t-62 -23q-54 0 -195 47q0 -62 13 -210l14 -132l-14 -131q-13 -148 -13 -209q135 47 195 47q36 0 62 -22.5t26 -52.5q0 -76 -94 -76q-48 0 -125 22l-64 19q56 -223 56 -363q0 -178 -87 -178q-83 0 -83 178q0 148 53 363z" />
    <glyph glyph-name="uni00B7" unicode="&#xb7;" horiz-adv-x="362" 
d="M70 682q0 46 33 78.5t79 32.5t78.5 -32.5t32.5 -78.5t-32.5 -79.5t-78.5 -33.5t-79 33.5t-33 79.5z" />
    <glyph glyph-name="uni00B7" unicode="&#x2219;" horiz-adv-x="362" 
d="M70 682q0 46 33 78.5t79 32.5t78.5 -32.5t32.5 -78.5t-32.5 -79.5t-78.5 -33.5t-79 33.5t-33 79.5z" />
    <glyph glyph-name="quotesinglbase" unicode="&#x201a;" horiz-adv-x="362" 
d="M76 -266l-2 18q68 101 57 232q-86 21 -86 108q0 50 32 83.5t79 33.5q58 0 94.5 -50.5t36.5 -131.5q0 -203 -211 -293z" />
    <glyph glyph-name="quotedblbase" unicode="&#x201e;" horiz-adv-x="662" 
d="M399 -266l-2 18q68 101 58 232q-86 21 -86 108q0 50 31.5 83.5t78.5 33.5q58 0 94.5 -50.5t36.5 -131.5q0 -203 -211 -293zM78 -266l-2 18q68 101 57 232q-86 21 -86 108q0 50 32 83.5t79 33.5q58 0 94.5 -50.5t36.5 -131.5q0 -203 -211 -293z" />
    <glyph glyph-name="perthousand" unicode="&#x2030;" horiz-adv-x="1450" 
d="M86 -61l700 1447h127l-698 -1447h-129zM223 657q-188 0 -188 363q0 362 188 362q189 0 189 -360q0 -365 -189 -365zM223 768q56 0 56 244q0 156 -12 209t-44 53t-43.5 -62t-11.5 -202q0 -242 55 -242zM1227 -14q-189 0 -189 362q0 363 189 363q188 0 188 -361
q0 -364 -188 -364zM1227 96q55 0 55 244q0 156 -12 209t-43 53q-33 0 -44.5 -62t-11.5 -202q0 -242 56 -242zM784 -14q-188 0 -188 362q0 363 188 363q189 0 189 -361q0 -364 -189 -364zM784 96q56 0 56 244q0 156 -12 209t-44 53t-43.5 -62t-11.5 -202q0 -242 55 -242z" />
    <glyph glyph-name="Acircumflex" unicode="&#xc2;" 
d="M14 0l258 1376h183l256 -1376h-170l-49 303h-254l-54 -303h-170zM264 467h197l-96 573h-5zM152 1460l113 307h198l113 -307h-92l-119 198l-121 -198h-92z" />
    <glyph glyph-name="Ecircumflex" unicode="&#xca;" horiz-adv-x="745" 
d="M119 0v1368h487v-164h-311v-409h285v-164h-285v-467h328v-164h-504zM162 1460l113 307h198l113 -307h-92l-119 198l-121 -198h-92z" />
    <glyph glyph-name="Aacute" unicode="&#xc1;" 
d="M14 0l258 1376h183l256 -1376h-170l-49 303h-254l-54 -303h-170zM264 467h197l-96 573h-5zM295 1464l43 299h195l-145 -299h-93z" />
    <glyph glyph-name="Edieresis" unicode="&#xcb;" horiz-adv-x="745" 
d="M119 0v1368h487v-164h-311v-409h285v-164h-285v-467h328v-164h-504zM406 1616q0 38 27.5 65t66.5 27q38 0 65 -27t27 -65t-27 -66t-65 -28t-66 28t-28 66zM158 1616q0 38 28 65t66 27t65 -27t27 -65t-27 -66t-65 -28t-66 28t-28 66z" />
    <glyph glyph-name="Egrave" unicode="&#xc8;" horiz-adv-x="745" 
d="M119 0v1368h487v-164h-311v-409h285v-164h-285v-467h328v-164h-504zM443 1464h-93l-145 299h195z" />
    <glyph glyph-name="Iacute" unicode="&#xcd;" horiz-adv-x="406" 
d="M115 0v1368h176v-1368h-176zM135 1464l43 299h195l-145 -299h-93z" />
    <glyph glyph-name="Icircumflex" unicode="&#xce;" horiz-adv-x="406" 
d="M115 0v1368h176v-1368h-176zM-8 1460l113 307h198l113 -307h-92l-119 198l-121 -198h-92z" />
    <glyph glyph-name="Idieresis" unicode="&#xcf;" horiz-adv-x="406" 
d="M115 0v1368h176v-1368h-176zM236 1616q0 38 27.5 65t66.5 27q38 0 65 -27t27 -65t-27 -66t-65 -28t-66 28t-28 66zM-12 1616q0 38 28 65t66 27t65 -27t27 -65t-27 -66t-65 -28t-66 28t-28 66z" />
    <glyph glyph-name="Igrave" unicode="&#xcc;" horiz-adv-x="406" 
d="M115 0v1368h176v-1368h-176zM273 1464h-93l-145 299h195z" />
    <glyph glyph-name="Oacute" unicode="&#xd3;" horiz-adv-x="874" 
d="M438 -18q-162 0 -264 187.5t-102 514.5q0 309 96.5 505.5t269.5 196.5q168 0 267.5 -196t99.5 -506q0 -330 -105 -516t-262 -186zM436 1223q-87 0 -133.5 -143.5t-46.5 -395.5q0 -261 48 -400t136 -139q84 0 132.5 142t48.5 397q0 259 -49 399t-136 140zM369 1464l43 299
h195l-145 -299h-93z" />
    <glyph glyph-name="Ocircumflex" unicode="&#xd4;" horiz-adv-x="874" 
d="M438 -18q-162 0 -264 187.5t-102 514.5q0 309 96.5 505.5t269.5 196.5q168 0 267.5 -196t99.5 -506q0 -330 -105 -516t-262 -186zM436 1223q-87 0 -133.5 -143.5t-46.5 -395.5q0 -261 48 -400t136 -139q84 0 132.5 142t48.5 397q0 259 -49 399t-136 140zM225 1460
l113 307h198l113 -307h-92l-119 198l-121 -198h-92z" />
    <glyph glyph-name="apple" horiz-adv-x="1618" 
 />
    <glyph glyph-name="Ograve" unicode="&#xd2;" horiz-adv-x="874" 
d="M438 -18q-162 0 -264 187.5t-102 514.5q0 309 96.5 505.5t269.5 196.5q168 0 267.5 -196t99.5 -506q0 -330 -105 -516t-262 -186zM436 1223q-87 0 -133.5 -143.5t-46.5 -395.5q0 -261 48 -400t136 -139q84 0 132.5 142t48.5 397q0 259 -49 399t-136 140zM506 1464h-93
l-145 299h195z" />
    <glyph glyph-name="Uacute" unicode="&#xda;" horiz-adv-x="831" 
d="M111 1368h176v-1028q0 -195 129 -195q57 0 93 49t36 138v1036h176v-1016q0 -180 -91 -275t-214 -95q-131 0 -218 99t-87 257v1030zM348 1464l43 299h195l-145 -299h-93z" />
    <glyph glyph-name="Ucircumflex" unicode="&#xdb;" horiz-adv-x="831" 
d="M111 1368h176v-1028q0 -195 129 -195q57 0 93 49t36 138v1036h176v-1016q0 -180 -91 -275t-214 -95q-131 0 -218 99t-87 257v1030zM205 1460l113 307h198l113 -307h-92l-119 198l-121 -198h-92z" />
    <glyph glyph-name="Ugrave" unicode="&#xd9;" horiz-adv-x="831" 
d="M111 1368h176v-1028q0 -195 129 -195q57 0 93 49t36 138v1036h176v-1016q0 -180 -91 -275t-214 -95q-131 0 -218 99t-87 257v1030zM486 1464h-93l-145 299h195z" />
    <glyph glyph-name="dotlessi" unicode="&#x131;" horiz-adv-x="362" 
d="M102 0v907h160v-907h-160z" />
    <glyph glyph-name="circumflex" unicode="&#x2c6;" horiz-adv-x="682" 
d="M129 1051l113 307h198l113 -307h-92l-119 198l-121 -198h-92z" />
    <glyph glyph-name="tilde" unicode="&#x2dc;" horiz-adv-x="682" 
d="M60 1096q-9 102 34 160.5t128 58.5q51 0 139 -27.5t119 -27.5q52 0 72 55h88q3 -21 3 -41q0 -80 -46.5 -129t-114.5 -49q-43 0 -125.5 29.5t-111.5 29.5q-69 0 -93 -59h-92z" />
    <glyph glyph-name="macron" unicode="&#x2c9;" horiz-adv-x="682" 
d="M145 1141v133h392v-133h-392z" />
    <glyph glyph-name="breve" unicode="&#x2d8;" horiz-adv-x="682" 
d="M130 1339h102q11 -153 111 -153q97 0 109 153h104v-14q0 -115 -59 -185.5t-154 -70.5q-98 0 -156 72t-57 198z" />
    <glyph glyph-name="dotaccent" unicode="&#x2d9;" horiz-adv-x="682" 
d="M248 1206q0 38 28 65t66 27t65 -27t27 -65t-27 -66t-65 -28t-66 28t-28 66z" />
    <glyph glyph-name="ring" unicode="&#x2da;" horiz-adv-x="682" 
d="M182 1210q0 66 47 112t113 46t112 -46t46 -112t-46.5 -112.5t-111.5 -46.5q-66 0 -113 47t-47 112zM440 1210q0 42 -28.5 70.5t-69.5 28.5t-69.5 -28.5t-28.5 -70.5q0 -41 28.5 -69.5t69.5 -28.5t69.5 28.5t28.5 69.5z" />
    <glyph glyph-name="cedilla" unicode="&#xb8;" horiz-adv-x="682" 
d="M168 -500v113q219 0 219 119q0 84 -117 94l78 182h137l-49 -114q115 -31 115 -152q0 -114 -99.5 -178t-283.5 -64z" />
    <glyph glyph-name="hungarumlaut" unicode="&#x2dd;" horiz-adv-x="682" 
d="M461 1014l43 299h194l-145 -299h-92zM184 1014l43 299h195l-146 -299h-92z" />
    <glyph glyph-name="ogonek" unicode="&#x2db;" horiz-adv-x="682" 
d="M238 27h124q-14 -89 -14 -144q0 -162 101 -162q39 0 94 27v-160q-87 -47 -156 -47q-85 0 -134.5 65t-49.5 179q0 84 35 242z" />
    <glyph glyph-name="caron" unicode="&#x2c7;" horiz-adv-x="682" 
d="M129 1358h92l121 -199l119 199h92l-113 -307h-198z" />
    <glyph glyph-name="Lslash" unicode="&#x141;" horiz-adv-x="641" 
d="M121 0v549l-121 -170v166l121 164v659h176v-457l145 203v-166l-145 -196v-588h338v-164h-514z" />
    <glyph glyph-name="lslash" unicode="&#x142;" horiz-adv-x="532" 
d="M485 930l-139 -174v-756h-160v588l-139 -174v147l139 176v631h160v-463l139 176v-151z" />
    <glyph glyph-name="Scaron" unicode="&#x160;" horiz-adv-x="575" 
d="M66 35v182q79 -76 153 -76q55 0 94 39t39 94q0 47 -22 114t-118.5 247.5t-125.5 273.5t-29 164q0 138 78.5 225.5t200.5 87.5q69 0 147 -36v-166q-72 43 -123 43q-133 0 -133 -131q0 -48 22.5 -115.5t119 -246t125 -272t28.5 -165.5q0 -140 -78.5 -227.5t-203.5 -87.5
q-90 0 -174 53zM76 1767h92l121 -199l119 199h92l-113 -307h-198z" />
    <glyph glyph-name="scaron" unicode="&#x161;" horiz-adv-x="512" 
d="M57 49v176q89 -98 158 -98q34 0 57 22t23 56q0 62 -90.5 197t-113.5 199.5t-23 117.5q0 92 55.5 152.5t140.5 60.5q77 0 152 -58v-151q-78 63 -137 63q-64 0 -64 -67q0 -57 93.5 -187.5t119 -198t25.5 -124.5q0 -101 -62 -167.5t-155 -66.5q-88 0 -179 74zM45 1358h92
l121 -199l119 199h92l-113 -307h-198z" />
    <glyph glyph-name="Zcaron" unicode="&#x17d;" horiz-adv-x="598" 
d="M33 0l315 1204h-278v164h495l-315 -1204h315v-164h-532zM88 1767h92l121 -199l119 199h92l-113 -307h-198z" />
    <glyph glyph-name="zcaron" unicode="&#x17e;" horiz-adv-x="575" 
d="M29 0l282 768h-256v139h477l-286 -768h293v-139h-510zM76 1358h92l121 -199l119 199h92l-113 -307h-198z" />
    <glyph glyph-name="brokenbar" unicode="&#xa6;" horiz-adv-x="1079" 
d="M461 1368h160v-790h-160v790zM461 238h160v-791h-160v791z" />
    <glyph glyph-name="uni00AD" unicode="&#xad;" horiz-adv-x="618" 
d="M59 373v172h371v-172h-371z" />
    <glyph glyph-name="uni00AF" unicode="&#xaf;" horiz-adv-x="1024" 
d="M-12 1632h1048v-102h-1048v102z" />
    <glyph glyph-name="Eth" unicode="&#xd0;" horiz-adv-x="854" 
d="M113 0v625h-113v123h113v620h194q469 0 469 -682q0 -341 -116.5 -513.5t-327.5 -172.5h-219zM289 164h26q156 0 220.5 119.5t64.5 394.5q0 287 -61 406.5t-220 119.5h-30v-456h170v-123h-170v-461z" />
    <glyph glyph-name="eth" unicode="&#xf0;" horiz-adv-x="655" 
d="M178 1288h137q21 -20 72 -84l158 66l45 -72l-150 -63q170 -227 170 -676q0 -220 -78.5 -352t-205.5 -132q-128 0 -206.5 127t-78.5 349q0 220 74.5 350.5t187.5 130.5q72 0 119 -49l4 4q-22 106 -86 200l-145 -59l-45 72l145 57q-55 71 -117 131zM324 780
q-119 0 -119 -323q0 -330 123 -330q118 0 118 330q0 323 -122 323z" />
    <glyph glyph-name="Yacute" unicode="&#xdd;" horiz-adv-x="641" 
d="M229 0v625l-215 743h181l118 -537h4l125 537h183l-219 -743v-625h-177zM252 1464l43 299h195l-145 -299h-93z" />
    <glyph glyph-name="yacute" unicode="&#xfd;" horiz-adv-x="641" 
d="M72 -500l184 660l-240 747h166l148 -473h4l131 473h160l-394 -1407h-159zM252 1055l43 299h195l-145 -299h-93z" />
    <glyph glyph-name="Thorn" unicode="&#xde;" horiz-adv-x="768" 
d="M127 0v1368h176v-299h10q189 0 300.5 -101.5t111.5 -279.5q0 -181 -103 -285t-282 -104h-37v-299h-176zM303 463h31q215 0 215 235q0 213 -246 207v-442z" />
    <glyph glyph-name="thorn" unicode="&#xfe;" 
d="M100 -489v1843h160v-512h4q52 80 137 80q110 0 185.5 -137t75.5 -345q0 -206 -73.5 -335.5t-187.5 -129.5q-78 0 -137 80h-4v-544h-160zM260 690v-481q55 -82 111 -82q127 0 127 315q0 328 -142 328q-39 0 -67.5 -35t-28.5 -45z" />
    <glyph glyph-name="multiply" unicode="&#xd7;" horiz-adv-x="1368" 
d="M256 1051l104 104l324 -324l324 324l104 -104l-324 -324l324 -324l-104 -104l-324 324l-324 -324l-104 104l324 324z" />
    <glyph glyph-name="onesuperior" unicode="&#xb9;" horiz-adv-x="449" 
d="M160 672v704h129v-704h-129z" />
    <glyph glyph-name="twosuperior" unicode="&#xb2;" horiz-adv-x="449" 
d="M10 672v30q211 288 211 461q0 101 -92 101q-31 0 -102 -29v119q75 28 129 28q90 0 143 -55t53 -149q0 -86 -39.5 -174t-117.5 -220h176v-112h-361z" />
    <glyph glyph-name="threesuperior" unicode="&#xb3;" horiz-adv-x="449" 
d="M33 682v117q63 -27 100 -27q94 0 94 107q0 99 -104 108v113q96 8 96 86q0 86 -84 86q-32 0 -84 -27v117q57 20 105 20q82 0 137 -52t55 -130q0 -97 -98 -151q110 -57 110 -179q0 -87 -62 -150t-148 -63q-50 0 -117 25z" />
    <glyph glyph-name="onehalf" unicode="&#xbd;" horiz-adv-x="1237" 
d="M152 -61l702 1447h125l-698 -1447h-129zM217 672v704h129v-704h-129zM743 0v31q211 287 211 461q0 100 -92 100q-31 0 -102 -29v119q75 29 129 29q91 0 143.5 -55t52.5 -150q0 -86 -39.5 -174t-117.5 -219h176v-113h-361z" />
    <glyph glyph-name="onequarter" unicode="&#xbc;" horiz-adv-x="1237" 
d="M201 -61l702 1447h125l-698 -1447h-129zM209 672v704h129v-704h-129zM969 0v186h-209v95l221 432h117v-439h43v-88h-43v-186h-129zM969 274v207h-4l-103 -207h107z" />
    <glyph glyph-name="threequarters" unicode="&#xbe;" horiz-adv-x="1237" 
d="M201 -61l702 1447h125l-698 -1447h-129zM90 682v117q63 -27 100 -27q95 0 95 107q0 99 -105 108v113q96 8 96 86q0 86 -83 86q-33 0 -84 -27v117q56 20 104 20q83 0 138 -52t55 -130q0 -97 -99 -151q111 -57 111 -179q0 -87 -62 -150t-149 -63q-49 0 -117 25zM969 0v186
h-211v95l223 432h117v-439h43v-88h-43v-186h-129zM969 274v207h-4l-103 -207h107z" />
    <glyph glyph-name="Abreve" unicode="&#x102;" 
d="M14 0l258 1376h183l256 -1376h-170l-49 303h-254l-54 -303h-170zM264 467h197l-96 573h-5zM150 1732h102q11 -153 111 -153q97 0 109 153h104v-14q0 -115 -59 -185.5t-154 -70.5q-98 0 -156 72t-57 198z" />
    <glyph glyph-name="abreve" unicode="&#x103;" horiz-adv-x="682" 
d="M659 168v-121q-75 -67 -124 -67q-89 0 -117 114q-88 -119 -174 -119q-71 0 -124.5 68.5t-53.5 161.5q0 107 75 182t271 188v87q0 118 -95 118q-97 0 -229 -149v184q122 117 242 117q100 0 170.5 -66t70.5 -178v-512q0 -53 25 -53q15 0 63 45zM412 231v234
q-189 -114 -189 -236q0 -45 22 -73.5t56 -28.5q42 0 76.5 45.5t34.5 58.5zM122 1339h102q11 -153 111 -153q97 0 109 153h104v-14q0 -115 -59 -185.5t-154 -70.5q-98 0 -156 72t-57 198z" />
    <glyph glyph-name="Aogonek" unicode="&#x104;" 
d="M14 0l258 1376h183l256 -1376h-43q-11 -59 -11 -117q0 -162 101 -162q41 0 94 27v-160q-88 -47 -156 -47q-87 0 -135.5 66.5t-48.5 177.5q0 37 9 95l20 120l-49 303h-254l-54 -303h-170zM461 467l-96 573h-5l-96 -573h197z" />
    <glyph glyph-name="aogonek" unicode="&#x105;" horiz-adv-x="682" 
d="M762 -252v-160q-88 -47 -156 -47q-87 0 -135.5 66.5t-48.5 177.5q0 85 33 231q-25 28 -37 78q-88 -119 -174 -119q-77 0 -127.5 71t-50.5 159q0 120 92.5 199t253.5 171v87q0 118 -95 118q-98 0 -229 -149v184q123 117 242 117q101 0 171 -67.5t70 -176.5v-512
q0 -53 25 -53q15 0 63 45v-121q-43 -40 -84 -57q-8 -58 -8 -107q0 -162 101 -162q41 0 94 27zM412 231v234q-189 -114 -189 -236q0 -49 24.5 -75.5t53.5 -26.5q41 0 76 45t35 59z" />
    <glyph glyph-name="Cacute" unicode="&#x106;" horiz-adv-x="682" 
d="M643 244v-185q-99 -77 -209 -77q-176 0 -272 180t-96 514t96.5 522t275.5 188q86 0 189 -71v-178q-88 86 -176 86q-106 0 -153.5 -124.5t-47.5 -414.5q0 -287 48 -413t159 -126q76 0 186 99zM334 1464l43 299h195l-145 -299h-93z" />
    <glyph glyph-name="cacute" unicode="&#x107;" horiz-adv-x="575" 
d="M555 178v-153q-77 -50 -158 -50q-139 0 -232 133t-93 338q0 214 92 350t233 136q67 0 144 -33v-164q-72 45 -119 45q-85 0 -135.5 -88.5t-50.5 -240.5q0 -149 55 -236.5t147 -87.5q54 0 117 51zM272 1055l43 299h195l-145 -299h-93z" />
    <glyph glyph-name="Ccaron" unicode="&#x10c;" horiz-adv-x="682" 
d="M643 244v-185q-99 -77 -209 -77q-176 0 -272 180t-96 514t96.5 522t275.5 188q86 0 189 -71v-178q-88 86 -176 86q-106 0 -153.5 -124.5t-47.5 -414.5q0 -287 48 -413t159 -126q76 0 186 99zM188 1771h92l121 -199l119 199h92l-113 -307h-198z" />
    <glyph glyph-name="ccaron" unicode="&#x10d;" horiz-adv-x="575" 
d="M555 178v-153q-77 -50 -158 -50q-139 0 -232 133t-93 338q0 214 92 350t233 136q67 0 144 -33v-164q-72 45 -119 45q-85 0 -135.5 -88.5t-50.5 -240.5q0 -149 55 -236.5t147 -87.5q54 0 117 51zM139 1358h92l121 -199l119 199h92l-113 -307h-198z" />
    <glyph glyph-name="Dcaron" unicode="&#x10e;" horiz-adv-x="854" 
d="M113 0v1368h194q469 0 469 -682q0 -341 -116.5 -513.5t-327.5 -172.5h-219zM289 164h26q156 0 220.5 119.5t64.5 394.5q0 287 -61 406.5t-220 119.5h-30v-1040zM195 1771h92l121 -199l119 199h92l-113 -307h-198z" />
    <glyph glyph-name="dcaron" unicode="&#x10f;" horiz-adv-x="973" 
d="M631 0h-160v70h-4q-57 -84 -145 -84q-107 0 -181.5 126t-74.5 339q0 214 74 347.5t190 133.5q81 0 141 -74v510h160v-1368zM471 231v459q-32 90 -104 90q-64 0 -101 -87.5t-37 -246.5q0 -301 129 -301q48 0 80.5 38t32.5 48zM751 963l-2 14q30 45 39.5 85t9.5 114
q-73 16 -73 90q0 43 28.5 72t65.5 29q46 0 79 -39.5t33 -116.5q0 -172 -180 -248z" />
    <glyph glyph-name="Dcroat" unicode="&#x110;" horiz-adv-x="854" 
d="M113 0v625h-113v123h113v620h194q469 0 469 -682q0 -341 -116.5 -513.5t-327.5 -172.5h-219zM289 164h26q156 0 220.5 119.5t64.5 394.5q0 287 -61 406.5t-220 119.5h-30v-456h170v-123h-170v-461z" />
    <glyph glyph-name="dcroat" unicode="&#x111;" 
d="M631 0h-160v70h-4q-59 -84 -145 -84q-106 0 -181 127t-75 338q0 215 73.5 348t190.5 133q80 0 141 -74v225h-207v123h207v162h160v-162h92v-123h-92v-1083zM471 231v459q-31 90 -104 90q-65 0 -101.5 -88t-36.5 -246q0 -301 129 -301q49 0 81 38t32 48z" />
    <glyph glyph-name="Eogonek" unicode="&#x118;" horiz-adv-x="745" 
d="M119 0v1368h487v-164h-311v-409h285v-164h-285v-467h328v-164h-39q-11 -59 -11 -117q0 -162 101 -162q41 0 94 27v-160q-88 -47 -156 -47q-87 0 -135.5 66.5t-48.5 177.5q0 72 29 215h-338z" />
    <glyph glyph-name="eogonek" unicode="&#x119;" horiz-adv-x="641" 
d="M547 213v-158q-80 -74 -172 -80q-6 -55 -6 -92q0 -162 100 -162q41 0 94 27v-160q-88 -47 -155 -47q-88 0 -136.5 66.5t-48.5 177.5q0 73 29 213q-182 92 -182 457q0 154 30.5 259.5t85 161.5t136.5 56q117 0 180 -118t63 -396h-336q0 -295 162 -295q88 0 156 90z
M406 537q0 256 -93 256q-86 0 -86 -256h179z" />
    <glyph glyph-name="Ecaron" unicode="&#x11a;" horiz-adv-x="745" 
d="M119 0v1368h487v-164h-311v-409h285v-164h-285v-467h328v-164h-504zM154 1771h92l121 -199l119 199h92l-113 -307h-198z" />
    <glyph glyph-name="ecaron" unicode="&#x11b;" horiz-adv-x="641" 
d="M547 213v-158q-85 -80 -187 -80q-138 0 -214 124t-76 356q0 226 66.5 351.5t185.5 125.5q248 0 243 -514h-336q0 -295 162 -295q88 0 156 90zM227 537h179q0 256 -93 256q-86 0 -86 -256zM111 1358h92l121 -199l119 199h92l-113 -307h-198z" />
    <glyph glyph-name="Lacute" unicode="&#x139;" horiz-adv-x="641" 
d="M121 0v1368h176v-1204h338v-164h-514zM369 1464l43 299h195l-145 -299h-93z" />
    <glyph glyph-name="lacute" unicode="&#x13a;" horiz-adv-x="342" 
d="M90 0v1368h160v-1368h-160zM80 1464l43 299h195l-145 -299h-93z" />
    <glyph glyph-name="Lcaron" unicode="&#x13d;" horiz-adv-x="641" 
d="M121 0v1368h176v-1204h338v-164h-514zM170 1771h92l121 -199l119 199h92l-113 -307h-198z" />
    <glyph glyph-name="lcaron" unicode="&#x13e;" horiz-adv-x="594" 
d="M90 0v1368h160v-1368h-160zM368 963l-2 14q30 45 39.5 85t9.5 114q-73 16 -73 90q0 43 28.5 72t65.5 29q46 0 79 -39.5t33 -116.5q0 -172 -180 -248z" />
    <glyph glyph-name="Nacute" unicode="&#x143;" horiz-adv-x="854" 
d="M121 0v1368h143l303 -844h4v844h162v-1368h-143l-303 852h-4v-852h-162zM349 1464l43 299h195l-145 -299h-93z" />
    <glyph glyph-name="nacute" unicode="&#x144;" 
d="M100 0v907h160v-98h4q67 113 168 113q90 0 144.5 -71t54.5 -198v-653h-160v649q0 131 -86 131q-48 0 -86.5 -49.5t-38.5 -58.5v-672h-160zM293 1055l43 299h195l-145 -299h-93z" />
    <glyph glyph-name="Ncaron" unicode="&#x147;" horiz-adv-x="854" 
d="M121 0v1368h143l303 -844h4v844h162v-1368h-143l-303 852h-4v-852h-162zM215 1771h92l121 -199l119 199h92l-113 -307h-198z" />
    <glyph glyph-name="ncaron" unicode="&#x148;" 
d="M100 0v907h160v-98h4q67 113 168 113q90 0 144.5 -71t54.5 -198v-653h-160v649q0 131 -86 131q-48 0 -86.5 -49.5t-38.5 -58.5v-672h-160zM161 1358h92l121 -199l119 199h92l-113 -307h-198z" />
    <glyph glyph-name="Ohungarumlaut" unicode="&#x150;" horiz-adv-x="874" 
d="M438 -18q-162 0 -264 187.5t-102 514.5q0 309 96.5 505.5t269.5 196.5q168 0 267.5 -196t99.5 -506q0 -330 -105 -516t-262 -186zM436 1223q-87 0 -133.5 -143.5t-46.5 -395.5q0 -261 48 -400t136 -139q84 0 132.5 142t48.5 397q0 259 -49 399t-136 140zM508 1464l43 299
h194l-145 -299h-92zM231 1464l43 299h195l-146 -299h-92z" />
    <glyph glyph-name="ohungarumlaut" unicode="&#x151;" horiz-adv-x="705" 
d="M352 -25q-131 0 -207.5 127.5t-76.5 350.5t76.5 351t207.5 128t208 -128t77 -351t-77 -350.5t-208 -127.5zM350 780q-119 0 -119 -327q0 -326 123 -326q119 0 119 326q0 327 -123 327zM420 1014l43 299h194l-145 -299h-92zM143 1014l43 299h195l-146 -299h-92z" />
    <glyph glyph-name="Racute" unicode="&#x154;" horiz-adv-x="748" 
d="M121 0v1368h147q176 0 268.5 -103.5t92.5 -275.5q0 -195 -142 -293q110 -78 187 -415l63 -281h-184l-53 236q-57 248 -99 315.5t-104 60.5v-612h-176zM297 776h8q148 0 148 207q0 220 -156 221v-428zM311 1464l43 299h195l-145 -299h-93z" />
    <glyph glyph-name="racute" unicode="&#x155;" horiz-adv-x="512" 
d="M104 0v907h160v-245h4q48 162 79.5 211t88.5 49q44 0 82 -27l-12 -164q-33 23 -70 23q-75 0 -123.5 -135t-48.5 -259v-360h-160zM236 1055l43 299h195l-145 -299h-93z" />
    <glyph glyph-name="Rcaron" unicode="&#x158;" horiz-adv-x="748" 
d="M121 0v1368h147q176 0 268.5 -103.5t92.5 -275.5q0 -195 -142 -293q110 -78 187 -415l63 -281h-184l-53 236q-57 248 -99 315.5t-104 60.5v-612h-176zM297 776h8q148 0 148 207q0 220 -156 221v-428zM160 1771h92l121 -199l119 199h92l-113 -307h-198z" />
    <glyph glyph-name="rcaron" unicode="&#x159;" horiz-adv-x="512" 
d="M104 0v907h160v-245h4q48 162 79.5 211t88.5 49q44 0 82 -27l-12 -164q-33 23 -70 23q-75 0 -123.5 -135t-48.5 -259v-360h-160zM98 1358h92l121 -199l119 199h92l-113 -307h-198z" />
    <glyph glyph-name="Sacute" unicode="&#x15a;" horiz-adv-x="575" 
d="M66 35v182q79 -76 153 -76q55 0 94 39t39 94q0 47 -22 114t-118.5 247.5t-125.5 273.5t-29 164q0 138 78.5 225.5t200.5 87.5q69 0 147 -36v-166q-72 43 -123 43q-133 0 -133 -131q0 -48 22.5 -115.5t119 -246t125 -272t28.5 -165.5q0 -140 -78.5 -227.5t-203.5 -87.5
q-90 0 -174 53zM205 1464l43 299h195l-145 -299h-93z" />
    <glyph glyph-name="sacute" unicode="&#x15b;" horiz-adv-x="512" 
d="M57 49v176q89 -98 158 -98q34 0 57 22t23 56q0 62 -90.5 197t-113.5 199.5t-23 117.5q0 92 55.5 152.5t140.5 60.5q77 0 152 -58v-151q-78 63 -137 63q-64 0 -64 -67q0 -57 93.5 -187.5t119 -198t25.5 -124.5q0 -101 -62 -167.5t-155 -66.5q-88 0 -179 74zM174 1055
l43 299h195l-145 -299h-93z" />
    <glyph glyph-name="Scedilla" unicode="&#x15e;" horiz-adv-x="575" 
d="M66 35v182q79 -76 153 -76q55 0 94 39t39 94q0 47 -22 114t-118.5 247.5t-125.5 273.5t-29 164q0 138 78.5 225.5t200.5 87.5q69 0 147 -36v-166q-72 43 -123 43q-133 0 -133 -131q0 -48 22.5 -115.5t119 -246t125 -272t28.5 -165.5q0 -140 -78.5 -227.5t-203.5 -87.5
q-90 0 -174 53zM204 -506l-2 14q30 45 39.5 85t9.5 114q-73 16 -73 90q0 43 28.5 72t65.5 29q46 0 79 -39.5t33 -116.5q0 -172 -180 -248z" />
    <glyph glyph-name="scedilla" unicode="&#x15f;" horiz-adv-x="512" 
d="M57 49v176q89 -98 158 -98q34 0 57 22t23 56q0 62 -90.5 197t-113.5 199.5t-23 117.5q0 92 55.5 152.5t140.5 60.5q77 0 152 -58v-151q-78 63 -137 63q-64 0 -64 -67q0 -57 93.5 -187.5t119 -198t25.5 -124.5q0 -101 -62 -167.5t-155 -66.5q-88 0 -179 74zM175 -506
l-2 14q30 45 39.5 85t9.5 114q-73 16 -73 90q0 43 28.5 72t65.5 29q46 0 79 -39.5t33 -116.5q0 -172 -180 -248z" />
    <glyph glyph-name="Tcommaaccent" unicode="&#x162;" horiz-adv-x="641" 
d="M231 0v1204h-211v164h598v-164h-210v-1204h-177zM243 -506l-2 14q30 45 39.5 85t9.5 114q-73 16 -73 90q0 43 28.5 72t65.5 29q46 0 79 -39.5t33 -116.5q0 -172 -180 -248z" />
    <glyph glyph-name="tcommaaccent" unicode="&#x163;" horiz-adv-x="469" 
d="M446 152v-142q-81 -35 -141 -35q-168 0 -168 203v590h-104v14q114 139 250 359h14v-234h149v-139h-149v-518q0 -72 13.5 -97.5t49.5 -25.5q33 0 86 25zM219 -506l-2 14q30 45 39.5 85t9.5 114q-73 16 -73 90q0 43 28.5 72t65.5 29q46 0 79 -39.5t33 -116.5
q0 -172 -180 -248z" />
    <glyph glyph-name="Tcaron" unicode="&#x164;" horiz-adv-x="641" 
d="M231 0v1204h-211v164h598v-164h-210v-1204h-177zM109 1771h92l121 -199l119 199h92l-113 -307h-198z" />
    <glyph glyph-name="tcaron" unicode="&#x165;" horiz-adv-x="717" 
d="M446 152v-142q-81 -35 -141 -35q-168 0 -168 203v590h-104v14q114 139 250 359h14v-234h149v-139h-149v-518q0 -72 13.5 -97.5t49.5 -25.5q33 0 86 25zM495 799l-2 14q30 45 39.5 85t9.5 114q-73 16 -73 90q0 43 28.5 72t65.5 29q46 0 79 -39.5t33 -116.5
q0 -172 -180 -248z" />
    <glyph glyph-name="Uring" unicode="&#x16e;" horiz-adv-x="831" 
d="M111 1368h176v-1028q0 -195 129 -195q57 0 93 49t36 138v1036h176v-1016q0 -180 -91 -275t-214 -95q-131 0 -218 99t-87 257v1030zM256 1619q0 66 47 112t113 46t112 -46t46 -112t-46.5 -112.5t-111.5 -46.5q-66 0 -113 47t-47 112zM514 1619q0 42 -28.5 70.5t-69.5 28.5
t-69.5 -28.5t-28.5 -70.5q0 -41 28.5 -69.5t69.5 -28.5t69.5 28.5t28.5 69.5z" />
    <glyph glyph-name="uring" unicode="&#x16f;" 
d="M618 907v-907h-159v98h-4q-64 -112 -162 -112q-91 0 -148 69t-57 191v661h160v-649q0 -129 86 -129q50 0 87.5 45.5t37.5 61.5v671h159zM195 1210q0 66 47 112t113 46t112 -46t46 -112t-46.5 -112.5t-111.5 -46.5q-66 0 -113 47t-47 112zM453 1210q0 42 -28.5 70.5
t-69.5 28.5t-69.5 -28.5t-28.5 -70.5q0 -41 28.5 -69.5t69.5 -28.5t69.5 28.5t28.5 69.5z" />
    <glyph glyph-name="Uhungarumlaut" unicode="&#x170;" horiz-adv-x="831" 
d="M111 1368h176v-1028q0 -195 129 -195q57 0 93 49t36 138v1036h176v-1016q0 -180 -91 -275t-214 -95q-131 0 -218 99t-87 257v1030zM486 1462l43 299h194l-145 -299h-92zM209 1462l43 299h195l-146 -299h-92z" />
    <glyph glyph-name="uhungarumlaut" unicode="&#x171;" 
d="M618 907v-907h-159v98h-4q-64 -112 -162 -112q-91 0 -148 69t-57 191v661h160v-649q0 -129 86 -129q50 0 87.5 45.5t37.5 61.5v671h159zM420 1014l43 299h194l-145 -299h-92zM143 1014l43 299h195l-146 -299h-92z" />
    <glyph glyph-name="Zacute" unicode="&#x179;" horiz-adv-x="598" 
d="M33 0l315 1204h-278v164h495l-315 -1204h315v-164h-532zM242 1464l43 299h195l-145 -299h-93z" />
    <glyph glyph-name="zacute" unicode="&#x17a;" horiz-adv-x="575" 
d="M29 0l282 768h-256v139h477l-286 -768h293v-139h-510zM227 1055l43 299h195l-145 -299h-93z" />
    <glyph glyph-name="Zdotaccent" unicode="&#x17b;" horiz-adv-x="598" 
d="M33 0l315 1204h-278v164h495l-315 -1204h315v-164h-532zM206 1616q0 38 28 65t66 27t65 -27t27 -65t-27 -66t-65 -28t-66 28t-28 66z" />
    <glyph glyph-name="zdotaccent" unicode="&#x17c;" horiz-adv-x="575" 
d="M29 0l282 768h-256v139h477l-286 -768h293v-139h-510zM195 1206q0 38 28 65t66 27t65 -27t27 -65t-27 -66t-65 -28t-66 28t-28 66z" />
    <glyph glyph-name="commaaccent" horiz-adv-x="682" 
d="M264 -506l-2 14q30 45 39.5 85t9.5 114q-73 16 -73 90q0 43 28.5 72t65.5 29q46 0 79 -39.5t33 -116.5q0 -172 -180 -248z" />
    <glyph glyph-name="currency" unicode="&#xa4;" horiz-adv-x="1366" 
d="M414 1026q125 88 270 88q147 0 270 -88l127 127l93 -92l-130 -129q91 -113 91 -268q0 -157 -91 -269l130 -129l-93 -92l-129 129q-109 -90 -268 -90q-154 0 -268 90l-129 -129l-92 92l129 129q-91 109 -91 269q0 153 89 270l-127 127l92 92zM1010 664q0 134 -95.5 229.5
t-230.5 95.5q-134 0 -230 -95.5t-96 -229.5q0 -135 96 -230.5t230 -95.5q135 0 230.5 95.5t95.5 230.5z" />
    </font>
</defs>
</svg>
